На всех торрентах на трекере установлена скидка на скачивание в размере 100 процентов(а).
 Возможность скачивания торрента НЕ зависит от ограничений при низком ратио, низком аплоаде, требуемом ратио или требуемом аплоаде.


Начать новую тему Ответить на тему
Статистика раздачи
Размер: 310.2 МБ | Добавлен: 16 окт 2016, 15:50 | Скачали: 0
Сидеров: 4  [0 байт/сек]    Личеров: 2  [0 байт/сек]
Пред. тема | След. тема 

Автор
Сообщение

СообщениеДобавлено: 16 окт 2016, 15:50 

Ответить с цитатой 

The Climax Blues Band / Plays On

Жанр: Psychedelic,Blues,Progressive Rock
Страна-производитель диска: Italy
Год издания: 1969
Издатель (лейбл): Akarma
Номер по каталогу: AK 144/2
Страна: UK
Аудиокодек: FLAC (*.flac)
Тип рипа: image+.cue
Битрейт аудио: lossless
Продолжительность: 47:56
Источник (релизер): CD
Наличие сканов в содержимом раздачи: да
Треклист:
01.Flight
02.Hey Baby Everything's Gonna Be Alright, Yeh, Yeh, Yeh
03.Cubano Chant
04.Little Girl
05.Mum's The Word
06.Twenty Past Two Temptation Rag
07.So Many Roads
08.City Ways
09.Crazy 'bout My Baby
10.Like Uncle Charlie - Bonus Track
Код:
Exact Audio Copy V1.0 beta 3 from 29. August 2011

EAC extraction logfile from 19. February 2013, 12:21

Climax Blues Band / Plays On

Used drive  : Optiarc BDRW BD-M100A   Adapter: 0  ID: 0

Read mode               : Secure
Utilize accurate stream : Yes
Defeat audio cache      : Yes
Make use of C2 pointers : No

Read offset correction                      : 102
Overread into Lead-In and Lead-Out          : No
Fill up missing offset samples with silence : Yes
Delete leading and trailing silent blocks   : No
Null samples used in CRC calculations       : Yes
Used interface                              : Native Win32 interface for Win NT & 2000

Used output format              : User Defined Encoder
Selected bitrate                : 128 kBit/s
Quality                         : High
Add ID3 tag                     : No
Command line compressor         : C:\Program Files (x86)\Exact Audio Copy\Flac\flac.exe
Additional command line options :  -V -8 -T "Date=%year%" -T "Genre=%genre%" %source%

TOC of the extracted CD

     Track |   Start  |  Length  | Start sector | End sector
    ---------------------------------------------------------
        1  |  0:00.00 |  7:45.57 |         0    |    34931
        2  |  7:45.57 |  4:23.73 |     34932    |    54729
        3  | 12:09.55 |  5:33.42 |     54730    |    79746
        4  | 17:43.22 |  2:57.70 |     79747    |    93091
        5  | 20:41.17 |  3:44.38 |     93092    |   109929
        6  | 24:25.55 |  3:19.27 |    109930    |   124881
        7  | 27:45.07 |  6:33.30 |    124882    |   154386
        8  | 34:18.37 |  3:19.45 |    154387    |   169356
        9  | 37:38.07 |  6:08.03 |    169357    |   196959
       10  | 43:46.10 |  4:14.52 |    196960    |   216061

Range status and errors

Selected range

     Filename C:\Users\User\Desktop\Rutracker\Climax-Plays On\Climax Blues Band - Plays On.wav

     Peak level 97.9 %
     Extraction speed 5.0 X
     Range quality 100.0 %
     Test CRC 06602355
     Copy CRC 06602355
     Copy OK

No errors occurred

End of status report

==== Log checksum B6F7E9A82167C459547E59114B2536835DECE2AE14B7E7F64D77B08106EA8EAD ====
Код:
REM GENRE "Psychedelic Rock"
REM DATE 1969
REM DISCID 7E0B400A
REM COMMENT "ExactAudioCopy v1.0b3"
PERFORMER "Climax Blues Band"
TITLE "Plays On"
FILE "Climax Blues Band - Plays On.flac" WAVE
  TRACK 01 AUDIO
    TITLE "Flight"
    PERFORMER "Climax Blues Band"
    INDEX 01 00:00:00
  TRACK 02 AUDIO
    TITLE "Hey Baby Everything's Gonna Be Alright, Yeh, Yeh, Yeh"
    PERFORMER "Climax Blues Band"
    INDEX 01 07:45:57
  TRACK 03 AUDIO
    TITLE "Cubano Chant"
    PERFORMER "Climax Blues Band"
    INDEX 01 12:09:55
  TRACK 04 AUDIO
    TITLE "Little Girl"
    PERFORMER "Climax Blues Band"
    INDEX 01 17:43:22
  TRACK 05 AUDIO
    TITLE "Mum's The Word"
    PERFORMER "Climax Blues Band"
    INDEX 01 20:41:17
  TRACK 06 AUDIO
    TITLE "Twenty Past Two Temptation Rag"
    PERFORMER "Climax Blues Band"
    INDEX 01 24:25:55
  TRACK 07 AUDIO
    TITLE "So Many Roads"
    PERFORMER "Climax Blues Band"
    INDEX 01 27:45:07
  TRACK 08 AUDIO
    TITLE "City Ways"
    PERFORMER "Climax Blues Band"
    INDEX 01 34:18:37
  TRACK 09 AUDIO
    TITLE "Crazy 'bout My Baby"
    PERFORMER "Climax Blues Band"
    INDEX 01 37:38:07
  TRACK 10 AUDIO
    TITLE "Like Uncle Charlie"
    PERFORMER "Climax Blues Band"
    INDEX 01 43:46:10
Первый альбом прославленного коллектива.
Правила, инструкции, FAQ!!!
Торрент  Добавлен [16 окт 2016, 15:50] Скачать торрент Магнет ссылка
Скачать торрент
[ Размер 12.84 КБ / Просмотров 87 ]

Статус
Проверен 
 
Размер  310.2 МБ
Приватный: Нет (DHT включён)
.torrent скачан  0
Как залить торрент? | Как скачать Torrent? | Ошибка в торренте? Качайте магнет  


     Отправить личное сообщение
   
Страница 1 из 1
Показать сообщения за:  Поле сортировки  
Начать новую тему Ответить на тему

   Похожие торренты   Автор   Ответы   Просмотры   Последнее сообщение 
В этой теме нет новых непрочитанных сообщений. Скачать торрент Проверен (Blues Rock)[LP][24/192] Climax Blues Band - Climax Chicago Blues Band - 1969, FLAC (image+.cue)

в форуме Зарубежный рок (оцифровки), Размер: 1.55 ГБ, Здоровье: 100%

Anonymous

0
6|5

34
1

25 авг 2016, 15:07

Anonymous Перейти к последнему сообщению

В этой теме нет новых непрочитанных сообщений. Скачать торрент Проверен (Rock, Blues) [LP] [24bit/192kHz] Climax Blues Band 1969-1972 - 1975, FLAC (image+.cue)

в форуме Зарубежный рок (оцифровки), Размер: 1.74 ГБ, Здоровье: 100%

Anonymous

0
4|1

28
0

25 авг 2016, 15:26

Anonymous Перейти к последнему сообщению

В этой теме нет новых непрочитанных сообщений. Скачать торрент Проверен (blues, blues-rock) Climax Blues Band - Blues From The Attic - 1996, FLAC (image+.cue), lossless

в форуме Blues (Texas, Chicago, Modern and Others), Размер: 465.24 МБ, Здоровье: 100%

Anonymous

0
4|1

32
1

16 окт 2016, 14:08

Anonymous Перейти к последнему сообщению

В этой теме нет новых непрочитанных сообщений. Скачать торрент Проверен (Rock, Blues) [CD] Climax Blues Band - Broke Heart Blues - 2015, FLAC (image+.cue), lossless

в форуме Blues (Texas, Chicago, Modern and Others), Размер: 487.19 МБ, Здоровье: 100%

Anonymous

0
12|4

80
0

16 окт 2016, 16:40

Anonymous Перейти к последнему сообщению

В этой теме нет новых непрочитанных сообщений. Скачать торрент Проверен (Blues/Blues-rock) Climax Blues Band - The Harvest Years 69-72 - 1991, FLAC (image+.cue), lossless

в форуме Blues (Texas, Chicago, Modern and Others), Размер: 418.04 МБ, Здоровье: 100%

Anonymous

0
2|0

30
0

16 окт 2016, 15:50

Anonymous Перейти к последнему сообщению



Сейчас этот форум просматривают: нет зарегистрированных пользователей и гости: 0


Вы не можете начинать темы
Вы не можете отвечать на сообщения
Вы не можете редактировать свои сообщения
Вы не можете удалять свои сообщения
Вы не можете добавлять вложения

Перейти:  
Ресурс не предоставляет электронные версии произведений, а занимается лишь коллекционированием и каталогизацией ссылок, присылаемых и публикуемых на форуме нашими читателями. Если вы являетесь правообладателем какого-либо представленного материала и не желаете чтобы ссылка на него находилась в нашем каталоге, свяжитесь с нами и мы незамедлительно удалим её. Файлы для обмена на трекере предоставлены пользователями сайта, и администрация не несёт ответственности за их содержание. Просьба не заливать файлы, защищенные авторскими правами, а также файлы нелегального содержания!
cron