На всех торрентах на трекере установлена скидка на скачивание в размере 100 процентов(а).
 Возможность скачивания торрента НЕ зависит от ограничений при низком ратио, низком аплоаде, требуемом ратио или требуемом аплоаде.


Начать новую тему Ответить на тему
Статистика раздачи
Размер: 1.13 ГБ | Добавлен: 01 сен 2016, 19:30 | Скачали: 3
Сидеров: 1  [0 байт/сек]    Личеров: 0  [0 байт/сек]
Пред. тема | След. тема 

Автор
Сообщение

СообщениеДобавлено: 01 сен 2016, 19:30 

Ответить с цитатой 

Third Ear Band - Albums Collection

Жанр: Progressive Rock, Psychedelic Rock
Страна-производитель диска: Japan
Год издания диска: 2015
Издатель (лейбл): Parlophone Records / Warner Music Japan
Номер по каталогу: WPCR-16334~36
Страна: UK
Аудио кодек: FLAC (*.flac)
Тип рипа: image+.cue
Битрейт аудио: lossless
Продолжительность: 02:11:03
Источник (релизер): ALLexxess
Наличие сканов в содержимом раздачи:
Треклист:
#77701. Mosaic 06:31
02. Ghetto Raga 10:32
03. Druid One 03:49
04. Stone Circle 03:28
05. Egyptian Book Of The Dead 08:55
06. Area Three 08:33
07. Dragon Lines 05:33
08. Lark Rise 02:46
Код:
Exact Audio Copy V1.0 beta 6 from 9. April 2015

EAC extraction logfile from 21. June 2015, 9:10

Third Ear Band / Alchemy SHM-CD

Used drive  : PLEXTOR BD-R  PX-B950SA   Adapter: 1  ID: 1

Read mode               : Secure
Utilize accurate stream : Yes
Defeat audio cache      : Yes
Make use of C2 pointers : No

Read offset correction                      : 6
Overread into Lead-In and Lead-Out          : No
Fill up missing offset samples with silence : Yes
Delete leading and trailing silent blocks   : No
Null samples used in CRC calculations       : Yes
Used interface                              : Native Win32 interface for Win NT & 2000

Used output format : Internal WAV Routines
Sample format      : 44.100 Hz; 16 Bit; Stereo

TOC of the extracted CD

     Track |   Start  |  Length  | Start sector | End sector
    ---------------------------------------------------------
        1  |  0:00.00 |  6:31.07 |         0    |    29331
        2  |  6:31.07 | 10:32.25 |     29332    |    76756
        3  | 17:03.32 |  3:49.45 |     76757    |    93976
        4  | 20:53.02 |  3:28.70 |     93977    |   109646
        5  | 24:21.72 |  8:55.43 |    109647    |   149814
        6  | 33:17.40 |  8:33.12 |    149815    |   188301
        7  | 41:50.52 |  5:33.18 |    188302    |   213294
        8  | 47:23.70 |  2:46.52 |    213295    |   225796

Range status and errors

Selected range

     Filename C:\Users\Meijin\Desktop\Lossless Galaxy ALLexxess\Third Ear Band\1969 Alchemy (SHM-CD Warner Music Japan 2015)\Third Ear Band - Alchemy SHM-CD.wav

     Peak level 100.0 %
     Extraction speed 7.1 X
     Range quality 100.0 %
     Test CRC 7FD058C7
     Copy CRC 7FD058C7
     Copy OK

No errors occurred

AccurateRip summary

Track  1  cannot be verified as accurate (confidence 4)  [89358B47], AccurateRip returned [65374DFA]  (AR v2)
Track  2  cannot be verified as accurate (confidence 5)  [0D1D58DF], AccurateRip returned [52B2D6A9]  (AR v2)
Track  3  cannot be verified as accurate (confidence 5)  [F61448AB], AccurateRip returned [C07D0122]  (AR v2)
Track  4  cannot be verified as accurate (confidence 5)  [EC3AEA0D], AccurateRip returned [57D3F693]  (AR v2)
Track  5  cannot be verified as accurate (confidence 5)  [68CBBE9E], AccurateRip returned [1D7D4BB4]  (AR v2)
Track  6  cannot be verified as accurate (confidence 5)  [2B46C4B6], AccurateRip returned [232332F9]  (AR v2)
Track  7  cannot be verified as accurate (confidence 5)  [519AC816], AccurateRip returned [97A85F5E]  (AR v2)
Track  8  cannot be verified as accurate (confidence 5)  [932517A9], AccurateRip returned [8E940CB5]  (AR v2)

No tracks could be verified as accurate
You may have a different pressing from the one(s) in the database

End of status report

---- CUETools DB Plugin V2.1.6

[CTDB TOCID: e8.ToPzHVIMWw1DXQz8e7hE7y88-] found
Submit result: e8.ToPzHVIMWw1DXQz8e7hE7y88- has been confirmed
Track | CTDB Status
  1   | (1/2) Accurately ripped
  2   | (1/2) Accurately ripped
  3   | (1/2) Accurately ripped
  4   | (1/2) Accurately ripped
  5   | (1/2) Accurately ripped
  6   | (1/2) Accurately ripped
  7   | (1/2) Accurately ripped
  8   | (1/2) Accurately ripped

==== Log checksum FED04C767BD6DD1D55F47C2B90F8A087AB5B0130F3616BC197ECD10CC60977F3 ====
Код:
REM GENRE "Progressive Rock / Psychedelic Rock / Folk Rock"
REM DATE 1969
REM DISCID 6D0BC208
REM COMMENT "ExactAudioCopy v1.0b6"
PERFORMER "Third Ear Band"
TITLE "Alchemy SHM-CD"
FILE "Third Ear Band - Alchemy SHM-CD.flac" WAVE
  TRACK 01 AUDIO
    TITLE "Mosaic"
    PERFORMER "Third Ear Band"
    INDEX 01 00:00:00
  TRACK 02 AUDIO
    TITLE "Ghetto Raga"
    PERFORMER "Third Ear Band"
    INDEX 00 06:26:50
    INDEX 01 06:31:07
  TRACK 03 AUDIO
    TITLE "Druid One"
    PERFORMER "Third Ear Band"
    INDEX 00 16:59:25
    INDEX 01 17:03:32
  TRACK 04 AUDIO
    TITLE "Stone Circle"
    PERFORMER "Third Ear Band"
    INDEX 00 20:48:72
    INDEX 01 20:53:02
  TRACK 05 AUDIO
    TITLE "Egyptian Book Of The Dead"
    PERFORMER "Third Ear Band"
    INDEX 00 24:19:15
    INDEX 01 24:21:72
  TRACK 06 AUDIO
    TITLE "Area Three"
    PERFORMER "Third Ear Band"
    INDEX 00 33:14:37
    INDEX 01 33:17:40
  TRACK 07 AUDIO
    TITLE "Dragon Lines"
    PERFORMER "Third Ear Band"
    INDEX 00 41:46:65
    INDEX 01 41:50:52
  TRACK 08 AUDIO
    TITLE "Lark Rise"
    PERFORMER "Third Ear Band"
    INDEX 00 47:20:50
    INDEX 01 47:23:70
Код:
-----------------------

DON'T MODIFY THIS FILE

-----------------------

PERFORMER: auCDtect Task Manager, ver. 1.6.0 RC1 build 1.6.0.1
Copyright (c) 2008-2010 y-soft. All rights reserved
[url=http://y-soft.org]http://y-soft.org[/url]

ANALYZER: auCDtect: CD records authenticity detector, version 0.8.2
Copyright (c) 2004 Oleg Berngardt. All rights reserved.
Copyright (c) 2004 Alexander Djourik. All rights reserved.

FILE: Third Ear Band - Alchemy SHM-CD.wav
Size: 531074588 Hash: 0D4F4A8BCBCE9BA0762755D18DC40EE2 Accuracy: -m8
Conclusion: CDDA 43%
Signature: 0C1FE625C818E83CCB1EE794835FBBC4D8220D21
FILE: Third Ear Band - Alchemy SHM-CD.flac
Size: 272290772 Hash: 0D4F4A8BCBCE9BA0762755D18DC40EE2 Accuracy: -m8
Conclusion: CDDA 43%
Signature: A06C61A22409958F4243A0311790EBB568D7144F
#77701. Air 10:32
02. Earth 09:59
03. Fire 09:22
04. Water 07:09
Код:
Exact Audio Copy V1.0 beta 6 from 9. April 2015

EAC extraction logfile from 21. June 2015, 8:37

Third Ear Band / Third Ear Band SHM-CD

Used drive  : PLEXTOR BD-R  PX-B950SA   Adapter: 1  ID: 1

Read mode               : Secure
Utilize accurate stream : Yes
Defeat audio cache      : Yes
Make use of C2 pointers : No

Read offset correction                      : 6
Overread into Lead-In and Lead-Out          : No
Fill up missing offset samples with silence : Yes
Delete leading and trailing silent blocks   : No
Null samples used in CRC calculations       : Yes
Used interface                              : Native Win32 interface for Win NT & 2000

Used output format : Internal WAV Routines
Sample format      : 44.100 Hz; 16 Bit; Stereo

TOC of the extracted CD

     Track |   Start  |  Length  | Start sector | End sector
    ---------------------------------------------------------
        1  |  0:00.00 | 10:32.57 |         0    |    47456
        2  | 10:32.57 |  9:59.15 |     47457    |    92396
        3  | 20:31.72 |  9:22.33 |     92397    |   134579
        4  | 29:54.30 |  7:09.12 |    134580    |   166766

Range status and errors

Selected range

     Filename C:\Users\Meijin\Desktop\Lossless Galaxy ALLexxess\Third Ear Band\1970 Third Ear Band (SHM-CD Warner Music Japan 2015)\Third Ear Band - Third Ear Band SHM-CD.wav

     Peak level 99.2 %
     Extraction speed 6.5 X
     Range quality 100.0 %
     Test CRC A784E885
     Copy CRC A784E885
     Copy OK

No errors occurred

AccurateRip summary

Track  1  cannot be verified as accurate (confidence 3)  [A438DC9E], AccurateRip returned [A6A47D01]  (AR v2)
Track  2  cannot be verified as accurate (confidence 3)  [23EA36AD], AccurateRip returned [F8C957FE]  (AR v2)
Track  3  cannot be verified as accurate (confidence 3)  [8145D78A], AccurateRip returned [EFABA3E5]  (AR v2)
Track  4  cannot be verified as accurate (confidence 3)  [0CED0A9D], AccurateRip returned [046E7E28]  (AR v2)

No tracks could be verified as accurate
You may have a different pressing from the one(s) in the database

End of status report

---- CUETools DB Plugin V2.1.6

[CTDB TOCID: a24Y_NbMrV.JqPHXihhhqaowEXM-] found
Submit result: a24Y_NbMrV.JqPHXihhhqaowEXM- has been confirmed
Track | CTDB Status
  1   | (2/2) Accurately ripped
  2   | (2/2) Accurately ripped
  3   | (2/2) Accurately ripped
  4   | (2/2) Accurately ripped

==== Log checksum 5189C2B566C4B5F0BB0E25972E9273DF9EA7A11BA4B1C7A1EB157D4305581C75 ====
Код:
REM GENRE "Progressive Rock / Psychedelic Rock / Folk Rock"
REM DATE 1970
REM DISCID 2F08AF04
REM COMMENT "ExactAudioCopy v1.0b6"
PERFORMER "Third Ear Band"
TITLE "Third Ear Band SHM-CD"
FILE "Third Ear Band - Third Ear Band SHM-CD.flac" WAVE
  TRACK 01 AUDIO
    TITLE "Air"
    PERFORMER "Third Ear Band"
    INDEX 01 00:00:00
  TRACK 02 AUDIO
    TITLE "Earth"
    PERFORMER "Third Ear Band"
    INDEX 00 10:27:57
    INDEX 01 10:32:57
  TRACK 03 AUDIO
    TITLE "Fire"
    PERFORMER "Third Ear Band"
    INDEX 00 20:27:52
    INDEX 01 20:31:72
  TRACK 04 AUDIO
    TITLE "Water"
    PERFORMER "Third Ear Band"
    INDEX 00 29:50:35
    INDEX 01 29:54:30
Код:
-----------------------

DON'T MODIFY THIS FILE

-----------------------

PERFORMER: auCDtect Task Manager, ver. 1.6.0 RC1 build 1.6.0.1
Copyright (c) 2008-2010 y-soft. All rights reserved
[url=http://y-soft.org]http://y-soft.org[/url]

ANALYZER: auCDtect: CD records authenticity detector, version 0.8.2
Copyright (c) 2004 Oleg Berngardt. All rights reserved.
Copyright (c) 2004 Alexander Djourik. All rights reserved.

FILE: Third Ear Band - Third Ear Band SHM-CD.wav
Size: 392236028 Hash: C223674DF729FBBE0368BD156579CDEC Accuracy: -m8
Conclusion: CDDA 100%
Signature: 0178CC95AB0D5EA92F9F34652A7C79BBCC1D97E5
FILE: Third Ear Band - Third Ear Band SHM-CD.flac
Size: 234265990 Hash: C223674DF729FBBE0368BD156579CDEC Accuracy: -m8
Conclusion: CDDA 100%
Signature: F4E67A127DC8A6E8362FD1F1F89CC6401E23E062
#77701. Overture 04:20
02. The Beach 01:54
03. Lady Macbeth 01:47
04. Inverness: Macbeth's Return / The Preparation / Fanfare / Duncan's Arrival 05:00
05. The Banquet 01:21
06. Dagger And Death 02:49
07. At The Well / The Prince's Escape / Coronation / Come Sealing Night 03:03
08. Court Dance 02:28
09. Fleance 04:02
10. Groom's Dance 04:21
11. Bear Baiting 01:10
12. Ambush / Banquo's Ghost 02:27
13. Going To Bed / Blind Man's Buff / Requiescant / Sere And Yellow Leaf 03:04
14. The Cauldron 02:39
15. Prophesies 01:53
16. Wicca Way 01:24
Код:
Exact Audio Copy V1.0 beta 6 from 9. April 2015

EAC extraction logfile from 20. June 2015, 19:49

Third Ear Band / Music From Macbeth SHM-CD

Used drive  : PLEXTOR BD-R  PX-B950SA   Adapter: 1  ID: 1

Read mode               : Secure
Utilize accurate stream : Yes
Defeat audio cache      : Yes
Make use of C2 pointers : No

Read offset correction                      : 6
Overread into Lead-In and Lead-Out          : No
Fill up missing offset samples with silence : Yes
Delete leading and trailing silent blocks   : No
Null samples used in CRC calculations       : Yes
Used interface                              : Native Win32 interface for Win NT & 2000

Used output format : Internal WAV Routines
Sample format      : 44.100 Hz; 16 Bit; Stereo

TOC of the extracted CD

     Track |   Start  |  Length  | Start sector | End sector
    ---------------------------------------------------------
        1  |  0:00.00 |  4:20.00 |         0    |    19499
        2  |  4:20.00 |  1:54.37 |     19500    |    28086
        3  |  6:14.37 |  1:47.63 |     28087    |    36174
        4  |  8:02.25 |  5:00.40 |     36175    |    58714
        5  | 13:02.65 |  1:21.52 |     58715    |    64841
        6  | 14:24.42 |  2:49.38 |     64842    |    77554
        7  | 17:14.05 |  3:03.55 |     77555    |    91334
        8  | 20:17.60 |  2:28.45 |     91335    |   102479
        9  | 22:46.30 |  4:02.47 |    102480    |   120676
       10  | 26:49.02 |  4:21.33 |    120677    |   140284
       11  | 31:10.35 |  1:10.25 |    140285    |   145559
       12  | 32:20.60 |  2:27.42 |    145560    |   156626
       13  | 34:48.27 |  3:04.35 |    156627    |   170461
       14  | 37:52.62 |  2:39.40 |    170462    |   182426
       15  | 40:32.27 |  1:53.38 |    182427    |   190939
       16  | 42:25.65 |  1:24.15 |    190940    |   197254

Range status and errors

Selected range

     Filename C:\Users\Meijin\Desktop\Lossless Galaxy ALLexxess\Third Ear Band\1972 Music From Macbeth (SHM-CD Warner Music Japan 2015)\Third Ear Band - Music From Macbeth SHM-CD.wav

     Peak level 100.0 %
     Extraction speed 6.7 X
     Range quality 99.9 %
     Test CRC AB8C13F1
     Copy CRC AB8C13F1
     Copy OK

No errors occurred

AccurateRip summary

Track  1  cannot be verified as accurate (confidence 5)  [0C57EC4B], AccurateRip returned [32BE61CB]  (AR v2)
Track  2  cannot be verified as accurate (confidence 5)  [C85068D5], AccurateRip returned [B82BD05B]  (AR v2)
Track  3  cannot be verified as accurate (confidence 5)  [20180A58], AccurateRip returned [81C346D4]  (AR v2)
Track  4  cannot be verified as accurate (confidence 5)  [6DDC86AB], AccurateRip returned [9A9739BE]  (AR v2)
Track  5  cannot be verified as accurate (confidence 5)  [5933089A], AccurateRip returned [DECE4841]  (AR v2)
Track  6  cannot be verified as accurate (confidence 5)  [3A9FF645], AccurateRip returned [1F1A4FE4]  (AR v2)
Track  7  cannot be verified as accurate (confidence 5)  [A2D3F7E7], AccurateRip returned [722ABB4A]  (AR v2)
Track  8  cannot be verified as accurate (confidence 5)  [EC4F932A], AccurateRip returned [0218EC9E]  (AR v2)
Track  9  cannot be verified as accurate (confidence 5)  [B2F3F7E3], AccurateRip returned [496E12F6]  (AR v2)
Track 10  cannot be verified as accurate (confidence 5)  [D2A55792], AccurateRip returned [8C959E8D]  (AR v2)
Track 11  cannot be verified as accurate (confidence 5)  [526B3B89], AccurateRip returned [82DDCF76]  (AR v2)
Track 12  cannot be verified as accurate (confidence 5)  [B2ED1154], AccurateRip returned [7EE3FB53]  (AR v2)
Track 13  cannot be verified as accurate (confidence 5)  [A7192F5D], AccurateRip returned [6E827E69]  (AR v2)
Track 14  cannot be verified as accurate (confidence 5)  [8D02C8E4], AccurateRip returned [54BD5384]  (AR v2)
Track 15  cannot be verified as accurate (confidence 5)  [8BD5D754], AccurateRip returned [F44A4FB0]  (AR v2)
Track 16  cannot be verified as accurate (confidence 5)  [85339E05], AccurateRip returned [D54FCFB8]  (AR v2)

No tracks could be verified as accurate
You may have a different pressing from the one(s) in the database

End of status report

---- CUETools DB Plugin V2.1.6

[CTDB TOCID: guZrr5a3YAQfujB4en4vdJpr41g-] found
Submit result: guZrr5a3YAQfujB4en4vdJpr41g- has been submitted
Track | CTDB Status
  1   | (0/2) No match
  2   | (0/2) No match
  3   | (0/2) No match
  4   | (0/2) No match
  5   | (0/2) No match
  6   | (0/2) No match
  7   | (0/2) No match
  8   | (0/2) No match
  9   | (0/2) No match
 10   | (0/2) No match
 11   | (0/2) No match
 12   | (0/2) No match
 13   | (0/2) No match
 14   | (0/2) No match
 15   | (0/2) No match
 16   | (0/2) No match

==== Log checksum 199AF0807F4AFDE70F6BDCDCF64EAA84C44EB29E61C006B6905837ADADD190F2 ====
Код:
REM GENRE "Progressive Rock / Psychedelic Rock / Folk Rock"
REM DATE 1972
REM DISCID E00A4610
REM COMMENT "ExactAudioCopy v1.0b6"
PERFORMER "Third Ear Band"
TITLE "Music From Macbeth SHM-CD"
FILE "Third Ear Band - Music From Macbeth SHM-CD.flac" WAVE
  TRACK 01 AUDIO
    TITLE "Overture"
    PERFORMER "Third Ear Band"
    INDEX 01 00:00:00
  TRACK 02 AUDIO
    TITLE "The Beach"
    PERFORMER "Third Ear Band"
    INDEX 01 04:20:00
  TRACK 03 AUDIO
    TITLE "Lady Macbeth"
    PERFORMER "Third Ear Band"
    INDEX 00 06:13:62
    INDEX 01 06:14:37
  TRACK 04 AUDIO
    TITLE "Inverness: Macbeth's Return / The Preparation / Fanfare / Duncan's Arrival"
    PERFORMER "Third Ear Band"
    INDEX 00 07:59:22
    INDEX 01 08:02:25
  TRACK 05 AUDIO
    TITLE "The Banquet"
    PERFORMER "Third Ear Band"
    INDEX 00 12:59:52
    INDEX 01 13:02:65
  TRACK 06 AUDIO
    TITLE "Dagger And Earth"
    PERFORMER "Third Ear Band"
    INDEX 00 14:20:40
    INDEX 01 14:24:42
  TRACK 07 AUDIO
    TITLE "At The Well / The Prince's Escape / Coronation / Come Sealing Night"
    PERFORMER "Third Ear Band"
    INDEX 00 17:10:65
    INDEX 01 17:14:05
  TRACK 08 AUDIO
    TITLE "Court Dance"
    PERFORMER "Third Ear Band"
    INDEX 01 20:17:60
  TRACK 09 AUDIO
    TITLE "Fleance"
    PERFORMER "Third Ear Band"
    INDEX 00 22:43:22
    INDEX 01 22:46:30
  TRACK 10 AUDIO
    TITLE "Groom's Dance"
    PERFORMER "Third Ear Band"
    INDEX 00 26:45:12
    INDEX 01 26:49:02
  TRACK 11 AUDIO
    TITLE "Bear Baiting"
    PERFORMER "Third Ear Band"
    INDEX 00 31:07:20
    INDEX 01 31:10:35
  TRACK 12 AUDIO
    TITLE "Ambush,Banquo's Ghost"
    PERFORMER "Third Ear Band"
    INDEX 01 32:20:60
  TRACK 13 AUDIO
    TITLE "Going To Bed / Blind Man's Buff / Requiescant / Sere And Yellow Leaf"
    PERFORMER "Third Ear Band"
    INDEX 00 34:45:32
    INDEX 01 34:48:27
  TRACK 14 AUDIO
    TITLE "The Cauldron"
    PERFORMER "Third Ear Band"
    INDEX 00 37:49:47
    INDEX 01 37:52:62
  TRACK 15 AUDIO
    TITLE "Prophesies"
    PERFORMER "Third Ear Band"
    INDEX 01 40:32:27
  TRACK 16 AUDIO
    TITLE "Wicca Way"
    PERFORMER "Third Ear Band"
    INDEX 01 42:25:65
Код:
-----------------------

DON'T MODIFY THIS FILE

-----------------------

PERFORMER: auCDtect Task Manager, ver. 1.6.0 RC1 build 1.6.0.1
Copyright (c) 2008-2010 y-soft. All rights reserved
[url=http://y-soft.org]http://y-soft.org[/url]

ANALYZER: auCDtect: CD records authenticity detector, version 0.8.2
Copyright (c) 2004 Oleg Berngardt. All rights reserved.
Copyright (c) 2004 Alexander Djourik. All rights reserved.

FILE: Third Ear Band - Music From Macbeth SHM-CD.wav
Size: 463943804 Hash: 27E25D07BB231F7060D2D8F0178FB1C1 Accuracy: -m8
Conclusion: CDDA 86%
Signature: 30CC02C968C21266574934352F809F1561EBA109
FILE: Third Ear Band - Music From Macbeth SHM-CD.flac
Size: 247852933 Hash: 27E25D07BB231F7060D2D8F0178FB1C1 Accuracy: -m8
Conclusion: CDDA 86%
Signature: AF8D182B3FBE6D2557A8D56B6C7DA7BD131CD156
Доп. информация
Performer:
Third Ear Band
Albums:
1969 Alchemy; 1970 Third Ear Band; 1972 Music From Macbeth
(SHM-CD Warner Music Japan 2015)
Info:
Parlophone Records / Warner Music Japan
Progressive Rock SHM-CD Collection Edition Series
Catalog SHM-CD: WPCR-16334~36
Made in Japan
Dynamic Range: 11 / 8 / 11
Released Year: 2015
P.S. Благодарности ALLexxess / Galaxy за предоставленную информацию
Правила, инструкции, FAQ!!!
Торрент  Добавлен [01 сен 2016, 19:30] Скачать торрент Магнет ссылка
Скачать торрент
[ Размер 22.11 КБ / Просмотров 63 ]

Статус
Проверен 
 
Размер  1.13 ГБ
Приватный: Нет (DHT включён)
.torrent скачан  3
Как залить торрент? | Как скачать Torrent? | Ошибка в торренте? Качайте магнет  


     Отправить личное сообщение
   
Страница 1 из 1
Показать сообщения за:  Поле сортировки  
Начать новую тему Ответить на тему

   Похожие торренты   Автор   Ответы   Просмотры   Последнее сообщение 
В этой теме нет новых непрочитанных сообщений. Скачать торрент Проверен (Progressive Rock) [CD] Curved Air - Albums Collection 1970-1972 (SHM-CD Warner Music Japan 2015), FLAC (image+.cue), lossless

в форуме Progressive & Art-Rock, Размер: 1.04 ГБ, Здоровье: 100%

Anonymous

0
195|10

66
7

01 сен 2016, 17:48

Anonymous Перейти к последнему сообщению

В этой теме нет новых непрочитанных сообщений. Скачать торрент Проверен (Rock, Progressive Rock, Psychedelic Rock) [CD] Syd Barrett - 3 Albums Collection (1970, 1988) - 2015 (Mini LP SHM-CD Warner Music Japan), FLAC (image+.cue), lossless

в форуме Progressive & Art-Rock, Размер: 1.79 ГБ, Здоровье: 100%

Anonymous

0
23|12

43
3

02 сен 2016, 12:57

Anonymous Перейти к последнему сообщению

В этой теме нет новых непрочитанных сообщений. Скачать торрент Проверен (Symphonic Progressive Rock, Psychedelic Rock) [CD] The Nice - Albums Collection 1970-1972 (Mini LP Platinum SHM-CD) - 2015 (Universal Music Japan), FLAC (image+.cue), lossless

в форуме Progressive & Art-Rock, Размер: 1.35 ГБ, Здоровье: 100%

Anonymous

0
26|9

90
4

02 сен 2016, 12:59

Anonymous Перейти к последнему сообщению

В этой теме нет новых непрочитанных сообщений. Скачать торрент Проверен (Rock, Progressive Rock) [CD] Wally - Albums Collection: 1974 - Wally & 1975 - Valley Gardens (SHM-CD Warner Music Japan 2015), FLAC (image+.cue), lossless

в форуме Progressive & Art-Rock, Размер: 649.07 МБ, Здоровье: 100%

Anonymous

0
23|2

51
5

31 авг 2016, 23:44

Anonymous Перейти к последнему сообщению

В этой теме нет новых непрочитанных сообщений. Скачать торрент Проверен (Rock, Progressive Rock) [CD] Tai Phong - 3 Albums Collection 1975, 1976, 1979 (Remastered) - 2014 (Warner Music Japan), FLAC (image+.cue), lossless

в форуме Progressive & Art-Rock, Размер: 1.27 ГБ, Здоровье: 100%

Anonymous

0
12|3

58
4

02 сен 2016, 13:27

Anonymous Перейти к последнему сообщению



Сейчас этот форум просматривают: нет зарегистрированных пользователей и гости: 0


Вы не можете начинать темы
Вы не можете отвечать на сообщения
Вы не можете редактировать свои сообщения
Вы не можете удалять свои сообщения
Вы не можете добавлять вложения

Перейти:  
Ресурс не предоставляет электронные версии произведений, а занимается лишь коллекционированием и каталогизацией ссылок, присылаемых и публикуемых на форуме нашими читателями. Если вы являетесь правообладателем какого-либо представленного материала и не желаете чтобы ссылка на него находилась в нашем каталоге, свяжитесь с нами и мы незамедлительно удалим её. Файлы для обмена на трекере предоставлены пользователями сайта, и администрация не несёт ответственности за их содержание. Просьба не заливать файлы, защищенные авторскими правами, а также файлы нелегального содержания!
cron