На всех торрентах на трекере установлена скидка на скачивание в размере 100 процентов(а).
 Возможность скачивания торрента НЕ зависит от ограничений при низком ратио, низком аплоаде, требуемом ратио или требуемом аплоаде.


Начать новую тему Ответить на тему
Статистика раздачи
Размер: 14.94 ГБ | Добавлен: 19 июл 2018, 21:25 | Скачали: 32
Сидеров: 32  [0 байт/сек]    Личеров: 24  [0 байт/сек]
Пред. тема | След. тема 

Автор
Сообщение

СообщениеДобавлено: 19 июл 2018, 21:25 

Ответить с цитатой 

Название: Пик Данте
Оригинальное название: Dante's Peak
Год выпуска: 1997
Жанр: боевик, триллер, приключения
Режиссер: Роджер Дональдсон
В ролях: Пирс Броснан (Harry Dalton), Линда Хэмилтон (Rachel Wando), Джейми Рене Смит (Lauren Wando), Джереми Фоули (Graham Wando), Элизабет Хоффман (Ruth), Чарльз Хэллахан (Paul Dreyfus), Грант Хеслов (Greg), Кирк Тратнер (Terry Furlong), Арабелла Филд (Nancy), Ци Ма (Stan), Брайан Редди (Les Worrell), Ли Гарлингтон (Dr. Jane Fox)
О фильме:
Ученый-вулканолог Гарри Далтон, потерявший жену во время извержения вулкана, отправляется на Пик Данте, в маленький городок, расположенный на северо-западном побережье, для того, чтобы заняться там рутинной работой — исследованием сейсмической ситуации.

Ученый немедленно обнаруживает тревожные признаки надвигающейся катастрофы, грозящей обернуться концом света. Правительство не обращает внимания на его грозные предупреждения, и лишь мэр городка Пик Данте Рэчел Уэндо, с которой у него завязался роман, осознает весь ужас положения и спешит к нему на помощь.

MPAA: PG-13 - Детям до 13 лет просмотр не желателен
Страна: США
Студия: Pacific Western, Universal Pictures
Продолжительность: 01:48:28
Перевод: Профессиональный (многоголосый, закадровый), Профессиональный (двухголосый, закадровый), Авторский (одноголосый, закадровый), Любительский (одноголосый, закадровый)
Релиз:

Файл
Качество: WEB-DL 1080p | Open Matte
Формат: Matroska
Видео: 1920x1080 at 23.976 fps, MPEG-4 AVC, ~12900 kbps avg
Аудио#1: Russian: 48 kHz, DTS, 2/0 (L,R), ~768 kbps avg |Многоголосый закадровый, Blu-ray EUR|
Аудио#2: Russian: 48 kHz, AC3, 3/2 (L,C,R,l,r) + LFE ch, ~384 kbps avg |Двухголосый закадровый, FDV|
Аудио#3: Russian: 48 kHz, AC3, 2/0 (L,R) ch, ~192 kbps avg |Многоголосый закадровый, ОРТ|
Аудио#4: Russian: 48 kHz, AC3, 2/0 (L,R) ch, ~192 kbps avg |Многоголосый закадровый, Universal Channel|
Аудио#5: Russian: 48 kHz, DTS, 3/2 (L,C,R,l,r) + LFE ch, ~1509 kbps avg |Авторский, Ю.Живов|
Аудио#6: Russian: 48 kHz, DTS, 3/2 (L,C,R,l,r) + LFE ch, ~1509 kbps avg |Авторский, А.Гаврилов|
Аудио#7: Russian: 48 kHz, AC3, 2/0 (L,R) ch, ~192 kbps avg |Авторский, С.Визгунов|
Аудио#8: Russian: 48 kHz, AC3, 2/0 (L,R) ch, ~192 kbps avg |Любительский, Неизвестный|
Аудио#9: Ukrainian: 48 kHz, AC3, 3/2 (L,C,R,l,r) + LFE ch, ~384 kbps avg |Многоголосый закадровый|
Аудио#10: English: 48 kHz, DTS, 3/2 (L,C,R,l,r) + LFE ch, ~1509 kbps avg
Субтитры: Russian, English
***Исходник видео: Amazon STARZ - периодически появляется логотип.
***Релиз: maksnew.

Вулканический пепел в фильме на самом деле состоял из очень мелко порезанных обрывков газет.
Большая часть съёмок прошла в небольшом городке Уоллас, штат Айдахо. Сам пик Данте и окружающий его ландшафт были добавлены с помощью компьютерной графики.
Сцены поблизости кратера вулкана были сняты на действующем вулкане Сент-Хеленс, расположенном в округе Скамания штата Вашингтон, США. Именно одно из извержений этого вулкана послужило основой для сюжета фильма.
Показанное в фильме извержение вулкана относится в вулканологии к плинианскому типу. Он характеризуется огромными столбами пепла, поднимающимися на высоту до 45 км, и назван в честь римского историка Плиния младшего, ставшего свидетелем извержения Везувия в 79 году н. э.
Собака в фильме это помесь волка и эрдельтерьера.
Камера, которую персонаж Пирса Броснана использовал при первом осмотре вулкана, в реальности принадлежала самому актёру.
[*]В сцене, когда огромный грязевой поток прорывает дамбу, было использовано более 6 млн. тонн воды. Сама же модель дамбы была возведена в ¾ натуральной величины.
Общее
Уникальный идентификатор : 256808684990194640727233136399211182373 (0xC1338DBB5C16BA13ADEED83F022E3925)
Полное имя : Dante’s Peak (1997) WEB-DL 1080p [Open Matte] -BLUEBIRD.mkv
Формат : Matroska
Версия формата : Version 4 / Version 2
Размер файла : 14,9 Гбайт
Продолжительность : 1 ч. 48 м.
Режим общего битрейта : Переменный
Общий поток : 19,7 Мбит/сек
Дата кодирования : UTC 2017-12-25 07:31:06
Программа кодирования : mkvmerge v19.0.0 ('Brave Captain') 64-bit
Библиотека кодирования : libebml v1.3.5 + libmatroska v1.4.8

Видео
Идентификатор : 1
Формат : AVC
Формат/Информация : Advanced Video Codec
Профиль формата : High@L4.0
Параметр CABAC формата : Да
Параметр ReFrames формата : 4 кадра
Идентификатор кодека : V_MPEG4/ISO/AVC
Продолжительность : 1 ч. 48 м.
Вид битрейта : Переменный
Битрейт : 12,5 Мбит/сек
Максимальный битрейт : 15,0 Мбит/сек
Ширина : 1920 пикселей
Высота : 1080 пикселей
Соотношение сторон : 16:9
Режим частоты кадров : Постоянный
Частота кадров : 23,976 кадра/сек
Цветовое пространство : YUV
Субдискретизация насыщенности : 4:2:0
Битовая глубина : 8 бит
Тип развёртки : Прогрессивная
Бит/(Пиксели*Кадры) : 0.251
Размер потока : 9,47 Гбайт (63%)
Default : Да
Forced : Нет
Основные цвета : BT.709
Характеристики трансфера : BT.709
Коэффициенты матрицы : BT.709

Аудио #1
Идентификатор : 2
Формат : DTS
Формат/Информация : Digital Theater Systems
Режим : 16
Параметр Endianness формата : Big
Идентификатор кодека : A_DTS
Продолжительность : 1 ч. 48 м.
Вид битрейта : Постоянный
Битрейт : 755 Кбит/сек
Каналы : 6 каналов
Расположение каналов : Front: L C R, Side: L R, LFE
Частота : 48,0 КГц
Битовая глубина : 24 бит
Метод сжатия : С потерями
Размер потока : 586 Мбайт (4%)
Заголовок : Blu-ray EUR
Язык : Russian
Default : Да
Forced : Нет

Аудио #2
Идентификатор : 3
Формат : AC-3
Формат/Информация : Audio Coding 3
Расширение режима : CM (complete main)
Параметр Endianness формата : Big
Идентификатор кодека : A_AC3
Продолжительность : 1 ч. 48 м.
Вид битрейта : Постоянный
Битрейт : 384 Кбит/сек
Каналы : 6 каналов
Расположение каналов : Front: L C R, Side: L R, LFE
Частота : 48,0 КГц
Битовая глубина : 16 бит
Метод сжатия : С потерями
Размер потока : 298 Мбайт (2%)
Заголовок : FDV
Язык : Russian
Default : Нет
Forced : Нет

Аудио #3
Идентификатор : 4
Формат : AC-3
Формат/Информация : Audio Coding 3
Расширение режима : CM (complete main)
Параметр Endianness формата : Big
Идентификатор кодека : A_AC3
Продолжительность : 1 ч. 48 м.
Вид битрейта : Постоянный
Битрейт : 192 Кбит/сек
Каналы : 2 канала
Расположение каналов : Front: L R
Частота : 48,0 КГц
Битовая глубина : 16 бит
Метод сжатия : С потерями
Размер потока : 149 Мбайт (1%)
Заголовок : ОРТ
Язык : Russian
Default : Нет
Forced : Нет

Аудио #4
Идентификатор : 5
Формат : AC-3
Формат/Информация : Audio Coding 3
Расширение режима : CM (complete main)
Параметр Endianness формата : Big
Идентификатор кодека : A_AC3
Продолжительность : 1 ч. 48 м.
Вид битрейта : Постоянный
Битрейт : 192 Кбит/сек
Каналы : 2 канала
Расположение каналов : Front: L R
Частота : 48,0 КГц
Битовая глубина : 16 бит
Метод сжатия : С потерями
Размер потока : 149 Мбайт (1%)
Заголовок : Universal Channel
Язык : Russian
Default : Нет
Forced : Нет

Аудио #5
Идентификатор : 6
Формат : DTS
Формат/Информация : Digital Theater Systems
Режим : 16
Параметр Endianness формата : Big
Идентификатор кодека : A_DTS
Продолжительность : 1 ч. 48 м.
Вид битрейта : Постоянный
Битрейт : 1510 Кбит/сек
Каналы : 6 каналов
Расположение каналов : Front: L C R, Side: L R, LFE
Частота : 48,0 КГц
Битовая глубина : 24 бит
Метод сжатия : С потерями
Размер потока : 1,15 Гбайт (8%)
Заголовок : Ю.Живов
Язык : Russian
Default : Нет
Forced : Нет

Аудио #6
Идентификатор : 7
Формат : DTS
Формат/Информация : Digital Theater Systems
Режим : 16
Параметр Endianness формата : Big
Идентификатор кодека : A_DTS
Продолжительность : 1 ч. 48 м.
Вид битрейта : Постоянный
Битрейт : 1510 Кбит/сек
Каналы : 6 каналов
Расположение каналов : Front: L C R, Side: L R, LFE
Частота : 48,0 КГц
Битовая глубина : 24 бит
Метод сжатия : С потерями
Размер потока : 1,15 Гбайт (8%)
Заголовок : А.Гаврилов
Язык : Russian
Default : Нет
Forced : Нет

Аудио #7
Идентификатор : 8
Формат : AC-3
Формат/Информация : Audio Coding 3
Расширение режима : CM (complete main)
Параметр Endianness формата : Big
Идентификатор кодека : A_AC3
Продолжительность : 1 ч. 48 м.
Вид битрейта : Постоянный
Битрейт : 192 Кбит/сек
Каналы : 2 канала
Расположение каналов : Front: L R
Частота : 48,0 КГц
Битовая глубина : 16 бит
Метод сжатия : С потерями
Размер потока : 149 Мбайт (1%)
Заголовок : С.Визгунов
Язык : Russian
Default : Нет
Forced : Нет

Аудио #8
Идентификатор : 9
Формат : AC-3
Формат/Информация : Audio Coding 3
Расширение режима : CM (complete main)
Параметр Endianness формата : Big
Идентификатор кодека : A_AC3
Продолжительность : 1 ч. 48 м.
Вид битрейта : Постоянный
Битрейт : 192 Кбит/сек
Каналы : 2 канала
Расположение каналов : Front: L R
Частота : 48,0 КГц
Битовая глубина : 16 бит
Метод сжатия : С потерями
Размер потока : 149 Мбайт (1%)
Заголовок : Неизвестный
Язык : Russian
Default : Нет
Forced : Нет

Аудио #9
Идентификатор : 10
Формат : AC-3
Формат/Информация : Audio Coding 3
Расширение режима : CM (complete main)
Параметр Endianness формата : Big
Идентификатор кодека : A_AC3
Продолжительность : 1 ч. 48 м.
Вид битрейта : Постоянный
Битрейт : 384 Кбит/сек
Каналы : 6 каналов
Расположение каналов : Front: L C R, Side: L R, LFE
Частота : 48,0 КГц
Битовая глубина : 16 бит
Метод сжатия : С потерями
Размер потока : 298 Мбайт (2%)
Язык : Ukrainian
Default : Нет
Forced : Нет

Аудио #10
Идентификатор : 11
Формат : DTS
Формат/Информация : Digital Theater Systems
Режим : 16
Параметр Endianness формата : Big
Идентификатор кодека : A_DTS
Продолжительность : 1 ч. 48 м.
Вид битрейта : Постоянный
Битрейт : 1510 Кбит/сек
Каналы : 6 каналов
Расположение каналов : Front: L C R, Side: L R, LFE
Частота : 48,0 КГц
Битовая глубина : 24 бит
Метод сжатия : С потерями
Размер потока : 1,15 Гбайт (8%)
Язык : English
Default : Нет
Forced : Нет

Текст #1
Идентификатор : 12
Формат : UTF-8
Идентификатор кодека : S_TEXT/UTF8
Идентификатор кодека/Информация : UTF-8 Plain Text
Язык : Russian
Default : Да
Forced : Нет

Текст #2
Идентификатор : 13
Формат : UTF-8
Идентификатор кодека : S_TEXT/UTF8
Идентификатор кодека/Информация : UTF-8 Plain Text
Язык : English
Default : Нет
Forced : Нет
Правила, инструкции, FAQ!!!
Торрент  Добавлен [19 июл 2018, 21:25] Скачать торрент Магнет ссылка
Скачать торрент
[ Размер 19.68 КБ / Просмотров 65 ]

Статус
Проверен 
 
Размер  14.94 ГБ
Приватный: Нет (DHT включён)
.torrent скачан  32
Как залить торрент? | Как скачать Torrent? | Ошибка в торренте? Качайте магнет  


     Отправить личное сообщение
   
Страница 1 из 1
Показать сообщения за:  Поле сортировки  
Начать новую тему Ответить на тему

   Похожие торренты   Автор   Ответы   Просмотры   Последнее сообщение 
В этой теме нет новых непрочитанных сообщений. Скачать торрент Проверен Пик Данте / Dante's Peak (1997) HDRip | Р

в форуме Боевики, Размер: 1.45 ГБ, Здоровье: 100%

Anonymous

0
32|2

134
119

25 сен 2014, 17:08

Anonymous Перейти к последнему сообщению

В этой теме нет новых непрочитанных сообщений. Скачать торрент Проверен Ю-571 / U-571 (2000) BDRip 1080p | D, A | Open Matte

в форуме 720p | 1080p, Размер: 19.72 ГБ, Здоровье: 100%

Гость

0
24|0

136
140

20 дек 2014, 15:36

Гость Перейти к последнему сообщению

В этой теме нет новых непрочитанных сообщений. Скачать торрент Хулиганы / Green Street Hooligans (2005) BDRip 1080p | Р | Open Matte

в форуме 720p | 1080p, Размер: 9.98 ГБ, Здоровье: 100%

Anonymous

0
13|1

88
126

27 мар 2014, 15:11

Anonymous Перейти к последнему сообщению

В этой теме нет новых непрочитанных сообщений. Скачать торрент Проверен Пришельцы 2: Коридоры времени / Les visiteurs 2: Les couloirs du temps (1998) HDTV 1080p | Open Matte

в форуме 720p | 1080p, Размер: 7.42 ГБ, Здоровье: 100%

Anonymous

0
64|45

231
15

15 янв 2015, 19:33

Anonymous Перейти к последнему сообщению

В этой теме нет новых непрочитанных сообщений. Скачать торрент Проверен Dewey Gram - Dante's Peak (Адаптированная аудиокнига, уровень-2, Elementary) [MP3 + PDF]

в форуме Английский язык (для взрослых), Размер: 67.61 МБ, Здоровье: 100%

Anonymous

0
3|2

49
1

27 фев 2017, 23:58

Anonymous Перейти к последнему сообщению



Сейчас этот форум просматривают: нет зарегистрированных пользователей и гости: 0


Вы не можете начинать темы
Вы не можете отвечать на сообщения
Вы не можете редактировать свои сообщения
Вы не можете удалять свои сообщения
Вы не можете добавлять вложения

Перейти:  
Ресурс не предоставляет электронные версии произведений, а занимается лишь коллекционированием и каталогизацией ссылок, присылаемых и публикуемых на форуме нашими читателями. Если вы являетесь правообладателем какого-либо представленного материала и не желаете чтобы ссылка на него находилась в нашем каталоге, свяжитесь с нами и мы незамедлительно удалим её. Файлы для обмена на трекере предоставлены пользователями сайта, и администрация не несёт ответственности за их содержание. Просьба не заливать файлы, защищенные авторскими правами, а также файлы нелегального содержания!
cron