На всех торрентах на трекере установлена скидка на скачивание в размере 100 процентов(а).
 Возможность скачивания торрента НЕ зависит от ограничений при низком ратио, низком аплоаде, требуемом ратио или требуемом аплоаде.


Начать новую тему Ответить на тему
Статистика раздачи
Размер: 6.56 ГБ | Добавлен: 29 апр 2015, 19:15 | Скачали: 0
Сидеров: 17  [0 байт/сек]    Личеров: 12  [0 байт/сек]
Пред. тема | След. тема 

Автор
Сообщение

СообщениеДобавлено: 29 апр 2015, 19:15 

Ответить с цитатой 

Peter Gabriel - Secret World Live

Страна: United Kingdom
Жанр: Rock / Art Rock / Prog Rock
Продолжительность: 1:42:28
Год выпуска: 2004 / 2012

Лейбл: Eagle Rock Entertainment
Релиз на BluRay: 24 июля 2012

Описание: Весной 1993-го стартовало глобальное мировое турне Питера Гэйбриэла,
на основе которого был сделан концерт Secret World Live.

Треклист

01 - Come Talk to Me
02 - Steam
03 - Across the Water
04 - Slow Marimbas
05 - Shaking the Tree
06 - Blood of Eden
07 - San Jacinto
08 - Kiss That Frog
09 - Washing of the Water
10 - Solsbury Hill
11 - Digging in the Dirt
12 - Sledgehammer
13 - Secret World
14 - Don't Give Up
15 - In Your Eyes

Чаптеры имеются

Источник - speed.cd

Ночью раздавать не смогу, сорри

Качество: BDRip 720p
Контейнер: MKV
Видео кодек: H.264
Аудио кодек: DTS
Видео: AVC, 1280х720, 16:9, 7 655 Kbps, 29.97 fps
Аудио: DTS, 1 510 Kbps, 48 KHz, 6 ch
Код:
General
Unique ID                                : 213136996771691386895991824833868163299 (0xA058B14359B85D0A803123B7A4FB68E3)
Complete name                            : K:\Peter.Gabriel.Secret.World.Live.2012.720p.MBluRay.x264-LOUNGE\Peter.Gabriel.Secret.World.Live.2012.720p.mkv
Format                                   : Matroska
Format version                           : Version 2
File size                                : 6.56 GiB
Duration                                 : 1h 42mn
Overall bit rate                         : 9 166 Kbps
Encoded date                             : UTC 2012-07-27 14:52:46
Writing application                      : mkvmerge v5.3.0 ('I could have danced') built on Feb  9 2012 10:38:07
Writing library                          : libebml v1.2.3 + libmatroska v1.3.0

Video
ID                                       : 1
Format                                   : AVC
Format/Info                              : Advanced Video Codec
Format profile                           : High@L4.1
Format settings, CABAC                   : Yes
Format settings, ReFrames                : 5 frames
Codec ID                                 : V_MPEG4/ISO/AVC
Duration                                 : 1h 42mn
Bit rate                                 : 7 655 Kbps
Width                                    : 1 280 pixels
Height                                   : 720 pixels
Display aspect ratio                     : 16:9
Frame rate                               : 29.970 fps
Color space                              : YUV
Chroma subsampling                       : 4:2:0
Bit depth                                : 8 bits
Scan type                                : Progressive
Bits/(Pixel*Frame)                       : 0.277
Stream size                              : 5.35 GiB (82%)
Writing library                          : x264 core 125 r2208 d9d2288
Encoding settings                        : cabac=1 / ref=5 / deblock=1:0:0 / analyse=0x3:0x133 / me=umh / subme=8 / psy=1 / psy_rd=1.00:0.00 / mixed_ref=1 / me_range=16 / chroma_me=1 / trellis=1 / 8x8dct=1 / cqm=0 / deadzone=21,11 / fast_pskip=0 / chroma_qp_offset=-2 / threads=6 / lookahead_threads=1 / sliced_threads=0 / nr=0 / decimate=1 / interlaced=0 / bluray_compat=0 / constrained_intra=0 / bframes=3 / b_pyramid=2 / b_adapt=1 / b_bias=0 / direct=1 / weightb=1 / open_gop=0 / weightp=2 / keyint=250 / keyint_min=25 / scenecut=40 / intra_refresh=0 / rc_lookahead=40 / rc=2pass / mbtree=1 / bitrate=7655 / ratetol=1.0 / qcomp=0.60 / qpmin=0 / qpmax=69 / qpstep=4 / cplxblur=20.0 / qblur=0.5 / ip_ratio=1.40 / aq=1:1.00
Language                                 : English
Default                                  : Yes
Forced                                   : No

Audio
ID                                       : 2
Format                                   : DTS
Format/Info                              : Digital Theater Systems
Codec ID                                 : A_DTS
Duration                                 : 1h 42mn
Bit rate mode                            : Constant
Bit rate                                 : 1 510 Kbps
Channel(s)                               : 6 channels
Channel positions                        : Front: L C R, Side: L R, LFE
Sampling rate                            : 48.0 KHz
Bit depth                                : 24 bits
Compression mode                         : Lossy
Stream size                              : 1.08 GiB (16%)
Default                                  : Yes
Forced                                   : No

Menu
00:00:00.000                             : en:00:00:00.000
00:06:33.793                             : en:00:06:33.793
00:14:26.966                             : en:00:14:26.966
00:20:28.627                             : en:00:20:28.627
00:22:09.595                             : en:00:22:09.595
00:29:23.528                             : en:00:29:23.528
00:36:25.050                             : en:00:36:25.050
00:44:13.651                             : en:00:44:13.651
00:50:18.682                             : en:00:50:18.682
00:54:13.250                             : en:00:54:13.250
00:58:44.321                             : en:00:58:44.321
01:05:42.906                             : en:01:05:42.906
01:11:50.306                             : en:01:11:50.306
01:22:29.878                             : en:01:22:29.878
01:29:40.275                             : en:01:29:40.275
01:39:43.744                             : en:01:39:43.744


Правила, инструкции, FAQ!!!
Торрент  Добавлен [29 апр 2015, 19:15] Скачать торрент Магнет ссылка
Скачать торрент
[ Размер 17 КБ / Просмотров 48 ]

Статус
Проверен 
 
Размер  6.56 ГБ
Приватный: Нет (DHT включён)
.torrent скачан  0
Как залить торрент? | Как скачать Torrent? | Ошибка в торренте? Качайте магнет  


     Отправить личное сообщение
   
Страница 1 из 1
Показать сообщения за:  Поле сортировки  
Начать новую тему Ответить на тему

   Похожие торренты   Автор   Ответы   Просмотры   Последнее сообщение 
В этой теме нет новых непрочитанных сообщений. Скачать торрент Проверен Peter Gabriel - Secret World Live [2012, Art Rock / Prog Rock, Blu-ray]

в форуме Концерты (HD-Video), Размер: 30.66 ГБ, Здоровье: 100%

Anonymous

0
17|16

52
0

23 окт 2016, 15:57

Anonymous Перейти к последнему сообщению

В этой теме нет новых непрочитанных сообщений. Скачать торрент Проверен Peter Gabriel - Secret World Live [2012, Progressive Rock, Art Rock, BD Remux]

в форуме Концерты (HD-Video), Размер: 22.81 ГБ, Здоровье: 54%

Гость

0
13|24

129
3

03 май 2015, 22:10

Гость Перейти к последнему сообщению

В этой теме нет новых непрочитанных сообщений. Скачать торрент Проверен (Crossover Prog) Peter Gabriel - I / O from Secret World - 2004, FLAC (tracks), lossless

в форуме Progressive & Art-Rock, Размер: 379.02 МБ, Здоровье: 100%

Anonymous

0
4|2

28
2

30 авг 2016, 21:09

Anonymous Перейти к последнему сообщению

В этой теме нет новых непрочитанных сообщений. Скачать торрент Проверен (Progressive Rock, Art Rock, World Music) Peter Gabriel: "Peter Gabriel 2 (Scratch)" - 1978, "Peter Gabriel 3 (Melt)" - 1980, APE (image + .cue), lossless

в форуме Progressive & Art-Rock, Размер: 452.94 МБ, Здоровье: 100%

Anonymous

0
7|4

121
2

30 авг 2016, 00:47

Anonymous Перейти к последнему сообщению

В этой теме нет новых непрочитанных сообщений. Скачать торрент Проверен (Progressive Rock/ Art Rock/ World Music) Peter Gabriel - Peter Gabriel IV - yellow rays disc design - 1982, FLAC (image+.cue), lossless

в форуме Progressive & Art-Rock, Размер: 225.56 МБ, Здоровье: 100%

Anonymous

0
1|0

96
0

30 авг 2016, 21:45

Anonymous Перейти к последнему сообщению



Сейчас этот форум просматривают: нет зарегистрированных пользователей и гости: 1


Вы не можете начинать темы
Вы не можете отвечать на сообщения
Вы не можете редактировать свои сообщения
Вы не можете удалять свои сообщения
Вы не можете добавлять вложения

Перейти:  
Ресурс не предоставляет электронные версии произведений, а занимается лишь коллекционированием и каталогизацией ссылок, присылаемых и публикуемых на форуме нашими читателями. Если вы являетесь правообладателем какого-либо представленного материала и не желаете чтобы ссылка на него находилась в нашем каталоге, свяжитесь с нами и мы незамедлительно удалим её. Файлы для обмена на трекере предоставлены пользователями сайта, и администрация не несёт ответственности за их содержание. Просьба не заливать файлы, защищенные авторскими правами, а также файлы нелегального содержания!
cron