На всех торрентах на трекере установлена скидка на скачивание в размере 100 процентов(а).
 Возможность скачивания торрента НЕ зависит от ограничений при низком ратио, низком аплоаде, требуемом ратио или требуемом аплоаде.


Начать новую тему Ответить на тему
Статистика раздачи
Размер: 738.11 МБ | Добавлен: 14 апр 2014, 09:29 | Скачали: 1
Сидеров: 7  [0 байт/сек]    Личеров: 2  [0 байт/сек]
Пред. тема | След. тема 

Автор
Сообщение

СообщениеДобавлено: 14 апр 2014, 09:29 

Ответить с цитатой 

Книга Руфь: Путешествие веры / The Book Of Ruth Journey Of Faith


Страна: США
Жанр: Драма
Год выпуска: 2009
Продолжительность: 01:30:43

Перевод: Любительский (двухголосый закадровый) Доп.инфо о переводе denisblek & ooksika
Cубтитры: нет
Режиссер: Стивен Патрик Волкер / Stephen Patrick Walker

В ролях: Лана Вуд, Ден Хагерти, Зак Стил, Шери Морис, Елиз Лестер, Карман

Описание: Библейская история основана на книге Руфь.
Фильм рассказывает о молодой вдове, потерявшей мужа, но не потерявшей веру и преданность матери. Она покидает свою родину и уходит в другую страну в поисках новой жизни, где она находит будущего мужа Вооза, обретает веру в Бога Израиля и входит в родословную Иисуса Христа, благодаря своей преданности, вере и терпению


СЭМПЛ

Качество видео: DVDRip
Формат видео: AVI

Видео: 608x336 (1.81:1), 23.976 fps, XviD MPEG-4 ~935 kbps avg, 0.19 bit/pixel
Аудио: 48 kHz, MPEG Layer 3, 2 ch, ~192.00 kbps avg
MediaInfo
Общее
Полное имя : C:\Users\Nuschrok\Desktop\Книга Руфь Путешествие веры The Book Of Ruth Journey Of Faith\Book_Of_Ruth_2009_Ru_by_denisblek_&_ooksika_v2.avi
Формат : AVI
Формат/Информация : Audio Video Interleave
Размер файла : 738 Мбайт
Продолжительность : 1 ч. 30 м.
Общий поток : 1137 Кбит/сек
Программа кодирования : VirtualDubMod 1.5.10.1 (build 2366/release)
Библиотека кодирования : VirtualDubMod build 2366/release

Видео
Идентификатор : 0
Формат : MPEG-4 Visual
Профиль формата : Advanced Simple@L5
Параметр BVOP формата : 2
Параметр QPel формата : Нет
Параметр GMC формата : Без точки перехода
Параметр матрицы формата : Default (H.263)
Режим смешивания : Сжатый битовый поток
Идентификатор кодека : XVID
Идентификатор кодека/Подсказка : XviD
Продолжительность : 1 ч. 30 м.
Битрейт : 936 Кбит/сек
Ширина : 608 пикс.
Высота : 336 пикс.
Соотношение сторон : 16:9
Частота кадров : 23,976 кадр/сек
Цветовое пространство : YUV
Подвыборка цветности : 4:2:0
Битовая глубина : 8 бит
Тип развёртки : Прогрессивная
Метод сжатия : С потерями
Бит/(Пиксели*Кадры) : 0.191
Размер потока : 607 Мбайт (82%)
Библиотека кодирования : XviD 1.2.0.dev47 (UTC 2006-11-01)

Аудио
Идентификатор : 1
Формат : MPEG Audio
Версия формата : Version 1
Профиль формата : Layer 3
Идентификатор кодека : 55
Идентификатор кодека/Подсказка : MP3
Продолжительность : 1 ч. 30 м.
Вид битрейта : Постоянный
Битрейт : 192 Кбит/сек
Каналы : 2 канала
Частота : 48,0 КГц
Метод сжатия : С потерями
Размер потока : 125 Мбайт (17%)
Выравнивание : Соединение по промежуткам
Продолжительность промежутка : 42 мс. (1,00 видеокадр)
Время предзагрузки промежутка : 504 ms
Библиотека кодирования : LAME3.98r
Настройки программы : -m s -V 4 -q 3 -lowpass 18.6 -b 192


Правила, инструкции, FAQ!!!
Торрент  Добавлен [14 апр 2014, 09:29] Скачать торрент Магнет ссылка
Скачать торрент
[ Размер 15 КБ / Просмотров 41 ]

Статус  
 
Размер  738.11 МБ
Приватный: Нет (DHT включён)
.torrent скачан  1
Как залить торрент? | Как скачать Torrent? | Ошибка в торренте? Качайте магнет  


     Отправить личное сообщение
   
Страница 1 из 1
Показать сообщения за:  Поле сортировки  
Начать новую тему Ответить на тему

   Похожие торренты   Автор   Ответы   Просмотры   Последнее сообщение 
В этой теме нет новых непрочитанных сообщений. Скачать торрент Проверен Патрик и его друзья / Patrick and Friends (2009) Диск 2 и 3 DVDRip

в форуме Развивающее Видео для детей, Размер: 745.17 МБ, Здоровье: 100%

Гость

0
4|1

146
1

30 ноя 2015, 23:39

Гость Перейти к последнему сообщению

В этой теме нет новых непрочитанных сообщений. Скачать торрент Добро пожаловать в рай 2 / Into the Blue 2: The Reef (Стивен Херек / Stephen Herek) [2009 г., Боевик, DVDRip-AVC]

в форуме Боевики, Размер: 1.44 ГБ, Здоровье: 100%

Anonymous

0
14|4

122
0

17 фев 2014, 11:45

Anonymous Перейти к последнему сообщению

В этой теме нет новых непрочитанных сообщений. Скачать торрент Проверен [iPod Audiobook] Стивен Кови / Stephen R. Covey - Стивен Кови - 8й навык / Stephen R. Covey - The 8th Habit From Effectivness To Greatness [Стивен Кови / Stephen R. Covey, 2004, 256 kbps, ENG]

в форуме Аудиокниги (AAC, ALAC), Размер: 100.11 МБ, Здоровье: 46%

Anonymous

0
6|13

96
0

28 авг 2016, 18:06

Anonymous Перейти к последнему сообщению

В этой теме нет новых непрочитанных сообщений. Скачать торрент Красный холм / Red Hill (Патрик Хьюз / Patrick Hughes) [2010, триллер, драма, криминал, HDRip] VO (zamez)

в форуме Триллеры, Размер: 1.46 ГБ, Здоровье: 100%

Anonymous

0
1|0

69
0

13 фев 2014, 06:33

Anonymous Перейти к последнему сообщению

В этой теме нет новых непрочитанных сообщений. Скачать торрент Проверен (House) Patrick Cash (Patrick Ca$h, Патрик Кэш) - Alarm - 2012, MP3, 320 kbps

в форуме House, Размер: 111.62 МБ, Здоровье: 100%

Гость

0
327|14

352
11

07 фев 2015, 13:23

Гость Перейти к последнему сообщению



Сейчас этот форум просматривают: нет зарегистрированных пользователей и гости: 0


Вы не можете начинать темы
Вы не можете отвечать на сообщения
Вы не можете редактировать свои сообщения
Вы не можете удалять свои сообщения
Вы не можете добавлять вложения

Перейти:  
Ресурс не предоставляет электронные версии произведений, а занимается лишь коллекционированием и каталогизацией ссылок, присылаемых и публикуемых на форуме нашими читателями. Если вы являетесь правообладателем какого-либо представленного материала и не желаете чтобы ссылка на него находилась в нашем каталоге, свяжитесь с нами и мы незамедлительно удалим её. Файлы для обмена на трекере предоставлены пользователями сайта, и администрация не несёт ответственности за их содержание. Просьба не заливать файлы, защищенные авторскими правами, а также файлы нелегального содержания!
cron