На всех торрентах на трекере установлена скидка на скачивание в размере 100 процентов(а).
 Возможность скачивания торрента НЕ зависит от ограничений при низком ратио, низком аплоаде, требуемом ратио или требуемом аплоаде.


Начать новую тему Ответить на тему
Статистика раздачи
Размер: 20.59 ГБ | Добавлен: 06 ноя 2013, 23:24 | Скачали: 0
Сидеров: 2  [0 байт/сек]    Личеров: 0  [0 байт/сек]
Пред. тема | След. тема 

Автор
Сообщение

СообщениеДобавлено: 06 ноя 2013, 23:24 

Ответить с цитатой 

Элиша Катберт: Фильмография / Elisha Cuthbert: Filmography (1997-2009) DVDRip, BDRip, HDRip, SATRip

Полное имя актрисы: Элиша Энн Катберт (Elisha Ann Cuthbert)

Рост: 1 м 59 см

Дата рождения: 30 ноября 1982
Место рождения: Калгари, Альберта, Канада

Частная жизнь:
Элиша Катберт — страстный хоккейный болельщик и обладатель сезонного билета на матчи хоккейной команды Los Angeles Kings. В 2005 году она завела блог на сайте НХЛ, хотя не пишет туда часто. Также она встречалась с игроком команды — Los Angeles Kings Шоном Эвери. В настоящее время встречается с игроком команды Toronto Maple Leafs Дионом Фанёфом.

Катберт регулярно появляется в ежегодных списках самых сексуальных женщин журналов FHM Maxim. Она заняла #14 в 2003, #10 в 2004, #5 в 2005, #22 в 2006, #10 в 2007 и #7 в 2009 в списке британского издания журнала Maxim. Американское издание поместило её на #53 в 2003, #63 в 2004, и #54 в 2006. В 2006 году она заявила, что не будет сниматься голой для ролей в кино и журналов, и использует дублёрш там, где это возможно, потому что «хочет оставить кое-что себе».
Ранняя биография

Катберт родилась в Калгари, Альберта, дочь Патрисии, домохозяйки, и Кевина, автомобильного инженера-конструктора. У Элиши есть брат и сестра, Джонатан и Ли-Энн, она выросла в городе Гринфилд-Парк, недалеко от Монреаля, Квебек. В 2000 году окончила Сентенниальскую среднюю школу и в возрасте 17 лет переехала в Лос-Анджелес, чтобы продолжить актёрскую карьеру.

С 9 лет Элиша начала работать моделью для различных линий детской одежды. Впервые она появилась на телевидении в детском хоррор-шоу «Боишься ли ты темноты?» в эпизодической роли, затем она стала постоянной участницей этого шоу. Также она стала со-ведущей в шоу «Популярная механика для детей», которое снималось в Монреале. Её участие в телешоу привлекло внимание тогдашней первой леди США Хиллари Клинтон, которая пригласила её в Белый Дом.

Катберт сыграла свою первую роль в кино в семейной драме «Танцуя на Луне» (1997). Она также снялась в нескольких канадских фильмах на семейную тему и в триллере «Воздушная скорость». Элиша сыграла главную роль в канадском телефильме «Счастливая девочка» (2001), за которую получила премию Gemini.

Вскоре после её переезда в Лос-Анджелес она прошла пробы на роль Ким Бауэр, дочери федерального агента Джека Бауэра в телесериале «24». Она появилась в первых трёх сезонах телесериала, но не в четвёртом, также она снялась в качестве приглашённой звезды в двух эпизодах пятого сезона. Также она снялась в пяти эпизодах седьмого сезона, и в двух эпизодах восьмого сезона.
2003—2007 Коммерческий успех

Катберт пробовалась на роль Мери-Джейн Уотсон в фильме «Человек-паук», но роль досталась Кирстен Данст. Она начала свою карьеру в Голливуде с маленьких ролей в фильмах «Реальная любовь» и «Старая закалка» (2001).

В следующем фильме «Соседка» она получила свою первую главную роль. У актрисы были сомнения по поводу съёмок в фильме, но режиссёр Люк Гринфилд не оставлял её в покое. Во время подготовки к съёмкам Элиша разговаривала с настоящими порноактрисами.

В следующем фильме «Дом восковых фигур» Элиша сыграла главную роль вместе с Пэрис Хилтон и Чад Майклом Мюрреем. Фильм был разгромлен критиками, но они отметили, что Элиша сыграла свою роль хорошо.

Также в 2005 году Элиша сыграла роль вокалистки группы Weeze в музыкальном видео известной рок-группы из Лос-Анджелеса Weezer на песню Perfect Situation.

Следующим проектом Элиши стал фильм «Тишина», где она не только стала исполнительницей главной роли, но и стала со-продюсером. В фильме она сыграла темпераментную 17-летнюю девушку-чирлидера, которая пострадала от сексуальных домогательств.

В 2007 году Катберт появилась в фильме «Похищение», в котором психопат похитил модель и держал её в неволе, за эту роль она была номинирована на премию «Золотая малина» как худшая актриса. Также в этом году она снялась в фильме «Он был тихоней» с Кристианом Слэйтером.
2008-по настоящее время: текущие и будущие проекты

В 2008 году Катберт появилась в фильме «Дрянная девчонка», ремейке корейского фильма, где сыграла главную роль с Джесси Бредфордом. Её следующим фильмом стала семейная комедия «Шесть жён Генри Лефэя» с Тимом Алленом, где сыграла его дочь. Также она снялась в канадском мини-сериале Guns. Элиша озвучила голос Клео в анимационном фильме «Рассказ кота», действие которого происходит в цивилизованном мире собак и кошек.

В 2010 году Элиша сыграет Максин Денвер в сериале «Забытые».
Танцуя на Луне / Dancing on the Moon (1997) SATRip

#777Русское название: Танцуя на Луне
Оригинальное название: Dancing on the Moon
Год выпуска: 1997
Производство: Канада
Жанр: Детский
Перевод: Многоголосый закадровый, профессиональный

Режиссер: Кит Худ
Актеры: Натали Вансье, Майкл Ярмуш, Элиша Катберт, Дороти Берриман, Мартин Беджли

Описание фильма:
Наступило лето, и 13-летней Мэделин кажется, что каждая вещь случается с ней в первый раз. И хотя она выглядит обычно, как и любая другая девочка в ее маленьком городке, внутри ей кажется, что она совершенно другая, настолько, что, вероятно, ее предки пришли с другой планеты. Может быть, причиной стал отъезд старшей сестры в медицинский колледж, с которой до этого она делила ванную комнату и детские секреты. Или это произошло из-за приезда эксцентричной тетушки, которую она никогда раньше не видела.
Чтобы там ни было, это тринадцатое лето Мэделин не похоже ни на одно другое..



Продолжительность: 01:26:45

Видеокодек: XviD
Битрейт видео: ~1594 kbps
Размер кадра: 640x360
Качество видео: SATRip
Аудио:
1. Русский, MP3, 2 ch, 128 kbps
Общее
Полное имя : \Элиша Катберт - Фильмография_NNM-CLUB\Танцуя на Луне (1997) SATRip_NNM-CLUB.avi
Формат : AVI
Формат/Информация : Audio Video Interleave
Размер файла : 1,05 Гбайт
Продолжительность : 1 ч. 26 м.
Общий поток : 1733 Кбит/сек
Программа кодирования : VirtualDubMod 1.5.10.2 (build 2540/release)
Библиотека кодирования : VirtualDubMod build 2540/release

Видео
Идентификатор : 0
Формат : MPEG-4 Visual
Профиль формата : Advanced Simple@L5
Параметр BVOP формата : 2
Параметр QPel формата : Нет
Параметр GMC формата : Без точки перехода
Параметр матрицы формата : Default (MPEG)
Режим смешивания : Сжатый битовый поток
Идентификатор кодека : XVID
Идентификатор кодека/Подсказка : XviD
Продолжительность : 1 ч. 26 м.
Битрейт : 1595 Кбит/сек
Ширина : 640 пикселей
Высота : 360 пикселей
Соотношение сторон : 16:9
Частота кадров : 25,000 кадров/сек
Цветовое пространство : YUV
Субдискретизация насыщенности : 4:2:0
Битовая глубина : 8 бит
Тип развёртки : Прогрессивная
Метод сжатия : С потерями
Бит/(Пиксели*Кадры) : 0.277
Размер потока : 990 Мбайт (92%)
Библиотека кодирования : XviD 62

Аудио
Идентификатор : 1
Формат : MPEG Audio
Версия формата : Version 1
Профиль формата : Layer 3
Идентификатор кодека : 55
Идентификатор кодека/Подсказка : MP3
Продолжительность : 1 ч. 26 м.
Вид битрейта : Постоянный
Битрейт : 128 Кбит/сек
Каналы : 2 канала
Частота : 48,0 КГц
Метод сжатия : С потерями
Размер потока : 79,4 Мбайт (7%)
Выравнивание : Соединение по промежуткам
Продолжительность промежутка : 40 мс. (1,00 видеокадр)
Время предзагрузки промежутка : 504 мс.
Скриншоты:



Нико - Единорог / Nico the Unicorn (1998) DVDRip

#777Русское название: Нико - Единорог
Оригинальное название: Nico the Unicorn
Год выпуска: 1998
Производство: США, Канада
Жанр: Приключения, детский , семейный
Перевод: Многоголосый закадровый, профессиональный

Режиссер: Грем Кэмпбелл
Актеры: Кевин Зегерс, Энн Арчер, Элиша Катберт, Мишель Перрон, Лени Паркер, Майкл Онткин, Мартин Неуфелд, Джонни Морина, Дон Макгоун, Мики Фрай, Ларри Дэй

Описание фильма:
После автомобильной катастрофы, в которой погиб его отец, 13-летний Билли вынужден носить на ноге металлический браслет. Одноклассники дразнят его, и в новом городе, куда Билли переехал вместе с матерью, он чувствует себя чужим и одиноким… пока у него не появляется друг — жеребенок со странным маленьким рогом на лбу по имени Нико, растущий не по дням, а по часам.
Билли считает, что это самый настоящий единорог, такой, как в сказках, и что он обладает чудесными способностями. Вскоре новость об удивительном звере попадает на страницы газет и экраны телевизоров.
Не желая, чтобы его друг попал в руки дурных людей, Билли вместе с Нико отправляется в горы на поиски волшебного «Райского сада», в котором живут единороги и исцеляются все болезни…



Продолжительность: 01:31:14

Видеокодек: XviD
Битрейт видео: ~939 kbps
Размер кадра: 640x444
Качество видео: DVDRip
Аудио:
1. Русский, MP3, 2 ch, 128 kbps
Общее
Полное имя : \Элиша Катберт - Фильмография_NNM-CLUB\Нико - Единорог (1998) DVDRip_NNM-CLUB.avi
Формат : AVI
Формат/Информация : Audio Video Interleave
Размер файла : 703 Мбайт
Продолжительность : 1 ч. 31 м.
Общий поток : 1077 Кбит/сек
Программа кодирования : VirtualDubModRus 1.5.10.2 (build 2542/release)
Библиотека кодирования : VirtualDubMod build 2542/release

Видео
Идентификатор : 0
Формат : MPEG-4 Visual
Профиль формата : Advanced Simple@L5
Параметр BVOP формата : 2
Параметр QPel формата : Нет
Параметр GMC формата : Без точки перехода
Параметр матрицы формата : Default (H.263)
Режим смешивания : Сжатый битовый поток
Идентификатор кодека : XVID
Идентификатор кодека/Подсказка : XviD
Продолжительность : 1 ч. 31 м.
Битрейт : 939 Кбит/сек
Ширина : 640 пикселей
Высота : 444 пикселя
Соотношение сторон : 1,441
Частота кадров : 25,000 кадров/сек
Цветовое пространство : YUV
Субдискретизация насыщенности : 4:2:0
Битовая глубина : 8 бит
Тип развёртки : Прогрессивная
Метод сжатия : С потерями
Бит/(Пиксели*Кадры) : 0.132
Размер потока : 613 Мбайт (87%)
Библиотека кодирования : XviD 1.2.1 (UTC 2008-12-04)

Аудио
Идентификатор : 1
Формат : MPEG Audio
Версия формата : Version 1
Профиль формата : Layer 3
Режим : Joint stereo
Расширение режима : MS Stereo
Идентификатор кодека : 55
Идентификатор кодека/Подсказка : MP3
Продолжительность : 1 ч. 31 м.
Вид битрейта : Постоянный
Битрейт : 128 Кбит/сек
Каналы : 2 канала
Частота : 44,1 КГц
Метод сжатия : С потерями
Размер потока : 83,5 Мбайт (12%)
Выравнивание : Разделение по промежуткам
Продолжительность промежутка : 40 мс. (1,00 видеокадр)
Время предзагрузки промежутка : 500 мс.
Библиотека кодирования : LAME3.98.2
Скриншоты:



Воздушная скорость / Airspeed (1999) DVDRip

#777Русское название: Воздушная скорость
Оригинальное название: Airspeed
Год выпуска: 1999
Производство: США, Канада
Жанр: Боевик, триллер, драма, приключения
Перевод: Многоголосый закадровый, профессиональный

Режиссер: Роберт Тиннелл
Актеры: Элиша Катберт, Бронуэн Бут, Джо Мантенья, Линн Адамс, Расселл Юэнь, Дон Джордан, Мартин Лакруа, Чарльз Пауэлл

Описание фильма:
Преуспевающий бизнесмен хочет, чтобы на банкете, где он будет произносить речь, присутствовала его 13-летняя дочь, с которой у отца как-то не складываются отношения. Бизнесмен отправляет за дочкой свой личный самолет. Частный "Боинг" попадает в бурю и получает удар молнией, после чего практически все приборы выходят из строя, а пилоты теряют сознание. Катастрофа неизбежна. Потому что в салоне самолета, кроме девочки, есть только пара сотрудников папашиной компании, которые также от полученных травм сидят в креслах в бессознательном состоянии. Что может сделать одна девочка-подросток?..



Продолжительность: 01:23:54

Видеокодек: XviD
Битрейт видео: ~2071 kbps
Размер кадра: 688x512
Качество видео: DVDRip
Аудио:
1. Русский, AC3, 6 ch, 384 kbps
Общее
Полное имя : \Элиша Катберт - Фильмография_NNM-CLUB\Воздушная скорость (1999) DVDRip_NNM-CLUB.avi
Формат : AVI
Формат/Информация : Audio Video Interleave
Размер файла : 1,44 Гбайт
Продолжительность : 1 ч. 23 м.
Общий поток : 2465 Кбит/сек
Программа кодирования : VirtualDubMod 1.5.4.1 (build 2178/release)
Библиотека кодирования : VirtualDubMod build 2178/release

Видео
Идентификатор : 0
Формат : MPEG-4 Visual
Профиль формата : Advanced Simple@L5
Параметр BVOP формата : 1
Параметр QPel формата : Нет
Параметр GMC формата : Без точки перехода
Параметр матрицы формата : Выборочная
Идентификатор кодека : XVID
Идентификатор кодека/Подсказка : XviD
Продолжительность : 1 ч. 23 м.
Битрейт : 2072 Кбит/сек
Ширина : 688 пикселей
Высота : 512 пикселей
Соотношение сторон : 4:3
Частота кадров : 25,000 кадров/сек
Цветовое пространство : YUV
Субдискретизация насыщенности : 4:2:0
Битовая глубина : 8 бит
Тип развёртки : Прогрессивная
Метод сжатия : С потерями
Бит/(Пиксели*Кадры) : 0.235
Размер потока : 1,21 Гбайт (84%)
Библиотека кодирования : XviD 1.2.1 (UTC 2008-12-04)

Аудио
Идентификатор : 1
Формат : AC-3
Формат/Информация : Audio Coding 3
Расширение режима : CM (complete main)
Параметр Endianness формата : Big
Идентификатор кодека : 2000
Продолжительность : 1 ч. 23 м.
Вид битрейта : Постоянный
Битрейт : 384 Кбит/сек
Каналы : 6 каналов
Расположение каналов : Front: L C R, Side: L R, LFE
Частота : 48,0 КГц
Битовая глубина : 16 бит
Метод сжатия : С потерями
Размер потока : 230 Мбайт (16%)
Выравнивание : Разделение по промежуткам
Продолжительность промежутка : 40 мс. (1,00 видеокадр)
Время предзагрузки промежутка : 500 мс.
Скриншоты:



Время превыше всего / Time at the top (1999) SATRip

#777Русское название: Время превыше всего
Оригинальное название: Time at the top
Год выпуска: 1999
Производство: Канада
Жанр: Фантастика
Перевод: Многоголосый закадровый, профессиональный

Режиссер: Джим Кауфман
Актеры: Тимоти Басфилд, Элиша Катберт, Габриэль Боуни, Мэттью Харбор, Жан Леклер, Ричард Джатрас, Чарльз Пауэлл

Описание фильма:
14-летняя Сьюзен Шосон открывает для себя возможность путешествовать во времени, благодаря обычному лифту. Из 1998 года она попадает в 1881, где знакомится со своей ровесницей Викторией Вокер. Над семьей Виктории нависла угроза в лице жадного и расчетливого жениха ее матери и Сьюзан решает помочь своей новой подруге...



Продолжительность: 01:32:09

Видеокодек: XviD
Битрейт видео: ~767 kbps
Размер кадра: 512x384
Качество видео: SATRip
Аудио:
1. Русский, MP3, 2 ch, 128 kbps
Общее
Полное имя : \Элиша Катберт - Фильмография_NNM-CLUB\Время превыше всего (1999) SATRip_NNM-CLUB.avi
Формат : AVI
Формат/Информация : Audio Video Interleave
Размер файла : 593 Мбайт
Продолжительность : 1 ч. 32 м.
Режим общего битрейта : Переменный
Общий поток : 899 Кбит/сек
Программа кодирования : MEncoder Sherpya-SVN-r26446-4.2.3
Библиотека кодирования : MPlayer

Видео
Идентификатор : 0
Формат : MPEG-4 Visual
Профиль формата : Simple@L3
Параметр BVOP формата : Нет
Параметр QPel формата : Нет
Параметр GMC формата : Без точки перехода
Параметр матрицы формата : Default (H.263)
Идентификатор кодека : XVID
Идентификатор кодека/Подсказка : XviD
Продолжительность : 1 ч. 32 м.
Битрейт : 768 Кбит/сек
Ширина : 512 пикселей
Высота : 384 пикселя
Соотношение сторон : 4:3
Частота кадров : 25,000 кадров/сек
Цветовое пространство : YUV
Субдискретизация насыщенности : 4:2:0
Битовая глубина : 8 бит
Тип развёртки : Прогрессивная
Метод сжатия : С потерями
Бит/(Пиксели*Кадры) : 0.156
Размер потока : 506 Мбайт (85%)
Библиотека кодирования : XviD 1.1.2 (UTC 2006-11-01)

Аудио
Идентификатор : 1
Формат : MPEG Audio
Версия формата : Version 1
Профиль формата : Layer 3
Режим : Joint stereo
Расширение режима : MS Stereo
Идентификатор кодека : 55
Идентификатор кодека/Подсказка : MP3
Продолжительность : 1 ч. 32 м.
Вид битрейта : Переменный
Битрейт : 119 Кбит/сек
Каналы : 2 канала
Частота : 44,1 КГц
Метод сжатия : С потерями
Размер потока : 78,4 Мбайт (13%)
Выравнивание : Соединение по промежуткам
Продолжительность промежутка : 26 мс. (0,65 видеокадр)
Время предзагрузки промежутка : 518 мс.
Скриншоты:



Предание / Believe (2000) SATRip

#777Русское название: Предание
Оригинальное название: Believe
Год выпуска: 2000
Производство: Канада
Жанр: Мистика, ужасы
Перевод: Многоголосый закадровый, профессиональный

Режиссер: Роберт Тиннелл
Актеры: Бен Газзара, Элиша Катберт, Андреа Мартин, Патрик Томас, Патрик Томас, Мэттью Смайли, Чарльз Пауэлл, Стефани Моргенстерн, Уна Кэй, Жан Рубес, Chip Chuipka, Джэйн Хейтмейер, Кристофер Хейердал, Власта Врана, Джастин Брэдли, Марио Бони, Рики Мейб

Описание фильма:
Юный Бэн Стайлс очень любит пугать людей. Но не всем нравится его хобби, тем более - директору академии, где учится Бэн. После очередной глупой выходки Бэну приходится покинуть престижную школу и отправиться к своему странному деду Джейсону, который одиноко живет в старинном имении Уиквайр. Поселившись в мрачном особняке, Бэн замечает за окнами призрачную фигуру плачущей женщины, которая приводит парня на заброшенное кладбище и исчезает. Там он знакомится с молодой и симпатичной Кэтрин, его соседкой. Сразу же понравившись друг другу, Бэн и Кэтрин решают выяснить, кто же бродит в окрестностях Уиквайра, не подозревая о том, что ответ на все их вопросы кроется в давних трагических событиях, ставших тайной и мучительным проклятьем рода Стайлсов.



Продолжительность: 01:28:54

Видеокодек: XviD
Битрейт видео: ~1468 kbps
Размер кадра: 640x480
Качество видео: SATRip
Аудио:
1. Русский, MP3, 2 ch, 128 kbps
Общее
Полное имя : \Элиша Катберт - Фильмография_NNM-CLUB\Предание (2000) SATRip_NNM-CLUB.avi
Формат : AVI
Формат/Информация : Audio Video Interleave
Размер файла : 1022 Мбайт
Продолжительность : 1 ч. 28 м.
Общий поток : 1607 Кбит/сек
Программа кодирования : VirtualDubMod 1.5.10.2 (build 2540/release)
Библиотека кодирования : VirtualDubMod build 2540/release

Видео
Идентификатор : 0
Формат : MPEG-4 Visual
Профиль формата : Advanced Simple@L5
Параметр BVOP формата : 1
Параметр QPel формата : Нет
Параметр GMC формата : Без точки перехода
Параметр матрицы формата : Выборочная
Идентификатор кодека : XVID
Идентификатор кодека/Подсказка : XviD
Продолжительность : 1 ч. 28 м.
Битрейт : 1469 Кбит/сек
Ширина : 640 пикселей
Высота : 480 пикселей
Соотношение сторон : 4:3
Частота кадров : 25,000 кадров/сек
Цветовое пространство : YUV
Субдискретизация насыщенности : 4:2:0
Битовая глубина : 8 бит
Тип развёртки : Прогрессивная
Метод сжатия : С потерями
Бит/(Пиксели*Кадры) : 0.191
Размер потока : 934 Мбайт (91%)
Библиотека кодирования : XviD 1.2.0.dev47 (UTC 2006-11-01)

Аудио
Идентификатор : 1
Формат : MPEG Audio
Версия формата : Version 1
Профиль формата : Layer 3
Режим : Joint stereo
Идентификатор кодека : 55
Идентификатор кодека/Подсказка : MP3
Продолжительность : 1 ч. 28 м.
Вид битрейта : Постоянный
Битрейт : 128 Кбит/сек
Каналы : 2 канала
Частота : 48,0 КГц
Метод сжатия : С потерями
Размер потока : 81,4 Мбайт (8%)
Выравнивание : Соединение по промежуткам
Продолжительность промежутка : 40 мс. (1,00 видеокадр)
Время предзагрузки промежутка : 504 мс.
Скриншоты:



Советник президента / Mail to the Chief (2000) DVDRip

#777Русское название: Советник президента
Оригинальное название: Mail to the Chief
Год выпуска: 2000
Производство: США, Канада
Жанр: Комедия, семейный
Перевод: Многоголосый закадровый, профессиональный

Режиссер: Эрик Чампнелла
Актеры: Билл Свитзер, Рэнди Куэйд, Холланд Тейлор, Эшли Горрелл, Мартин Дойл, Крейг Элдридж, Патрик Галлиган, Кэтлин Лэски, Дэйв Николс, Нил Кроун, Элиша Катберт

Описание фильма:
Обычный школьник Кенни, блуждая по сети, наткнулся в чате на парня, скрывающегося под псевдонимом Середнячок Джо. Джо крайне нуждался в советах по миллиону вопросов, а у нашего героя как раз был миллион ответов, которые он хотел бы сбыть любому желающему его слушать. Так было положено начало крепкой интернет-дружбы, имевшей, как выяснил наш герой позже, далеко идущие политические последствия. Ведь под именем Джо скрывался никто иной, как… президент США А. Торнтон Оскуд, который не преминул воспользоваться ценными советами Кенни в управлении государством!



Продолжительность: 01:25:23

Видеокодек: XviD
Битрейт видео: ~2134 kbps
Размер кадра: 720x544
Качество видео: DVDRip
Аудио:
1. Русский, MP3, 2 ch, 128 kbps
Общее
Полное имя : \Элиша Катберт - Фильмография_NNM-CLUB\Советник президента (2000) DVDRip_NNM-CLUB.avi
Формат : AVI
Формат/Информация : Audio Video Interleave
Размер файла : 1,36 Гбайт
Продолжительность : 1 ч. 25 м.
Общий поток : 2272 Кбит/сек
Программа кодирования : VirtualDubModRus 1.5.10.2 (build 2542/release)
Библиотека кодирования : VirtualDubMod build 2542/release

Видео
Идентификатор : 0
Формат : MPEG-4 Visual
Профиль формата : Simple@L0
Параметр BVOP формата : Нет
Параметр QPel формата : Нет
Параметр GMC формата : Без точки перехода
Параметр матрицы формата : Default (H.263)
Идентификатор кодека : XVID
Идентификатор кодека/Подсказка : XviD
Продолжительность : 1 ч. 25 м.
Битрейт : 2135 Кбит/сек
Ширина : 720 пикселей
Высота : 544 пикселя
Соотношение сторон : 4:3
Частота кадров : 25,000 кадров/сек
Цветовое пространство : YUV
Субдискретизация насыщенности : 4:2:0
Битовая глубина : 8 бит
Тип развёртки : Прогрессивная
Метод сжатия : С потерями
Бит/(Пиксели*Кадры) : 0.218
Размер потока : 1,27 Гбайт (94%)
Библиотека кодирования : XviD 1.2.0.dev47 (UTC 2006-11-01)

Аудио
Идентификатор : 1
Формат : MPEG Audio
Версия формата : Version 1
Профиль формата : Layer 3
Идентификатор кодека : 55
Идентификатор кодека/Подсказка : MP3
Продолжительность : 1 ч. 25 м.
Вид битрейта : Постоянный
Битрейт : 128 Кбит/сек
Каналы : 2 канала
Частота : 48,0 КГц
Метод сжатия : С потерями
Размер потока : 78,2 Мбайт (6%)
Выравнивание : Соединение по промежуткам
Продолжительность промежутка : 40 мс. (1,00 видеокадр)
Время предзагрузки промежутка : 504 мс.
Скриншоты:



Счастливая девочка / Lucky Girl (2001) DVDRip

#777Русское название: Счастливая девочка
Оригинальное название: Lucky Girl
Год выпуска: 2001
Производство: Канада
Жанр: Драма
Перевод: Многоголосый закадровый, профессиональный

Режиссер: Джон Фоссет
Актеры: Элиша Катберт,Шерри Миллер, Ивэн Сабба, Сара Осман, Джонатан Уитэйкер, Шарлотта Салливан, Виктория Сноу, Джордан Уолкер, Стив Росс

Описание фильма:
История 17-летней девушки Кэтлин Палмерстон, школьницы с блестящей успеваемостью, которая заражается страстью к азартным играм. Все начинается совсем невинно, на дне рождения ее подруги. Желая побыстрее накопить на поездку в Европу, она играет в покер на деньги. После принимает участие в незаконом тотализаторе. Скоро она проводит за игрой в Интернет-казино все ночи напролет. Влезает в долги, которые начинают расти. Это заставляет идти её на все большие авантюры, некоторые из которых, уже отнюдь небезобидны...



Продолжительность: 01:35:14

Видеокодек: XviD
Битрейт видео: ~2003 kbps
Размер кадра: 704x400
Качество видео: DVDRip
Аудио:
1. Русский, MP3, 2 ch, 96 kbps
2. Английский, MP3, 2 ch, 128 kbps
Общее
Полное имя : \Элиша Катберт - Фильмография_NNM-CLUB\Счастливая девочка (2001) DVDRip_NNM-CLUB.avi
Формат : AVI
Формат/Информация : Audio Video Interleave
Размер файла : 1,47 Гбайт
Продолжительность : 1 ч. 35 м.
Общий поток : 2210 Кбит/сек
Программа кодирования : VirtualDubModRus 1.5.10.2 (build 2542/release)
Библиотека кодирования : VirtualDubMod build 2542/release

Видео
Идентификатор : 0
Формат : MPEG-4 Visual
Профиль формата : Advanced Simple@L5
Параметр BVOP формата : 1
Параметр QPel формата : Нет
Параметр GMC формата : Без точки перехода
Параметр матрицы формата : Выборочная
Идентификатор кодека : XVID
Идентификатор кодека/Подсказка : XviD
Продолжительность : 1 ч. 35 м.
Битрейт : 2004 Кбит/сек
Ширина : 704 пикселя
Высота : 400 пикселей
Соотношение сторон : 16:9
Частота кадров : 23,976 кадра/сек
Цветовое пространство : YUV
Субдискретизация насыщенности : 4:2:0
Битовая глубина : 8 бит
Тип развёртки : Прогрессивная
Метод сжатия : С потерями
Бит/(Пиксели*Кадры) : 0.297
Размер потока : 1,33 Гбайт (91%)
Библиотека кодирования : XviD 1.2.1 (UTC 2008-12-04)

Аудио #1
Идентификатор : 1
Формат : MPEG Audio
Версия формата : Version 2
Профиль формата : Layer 3
Идентификатор кодека : 55
Идентификатор кодека/Подсказка : MP3
Продолжительность : 1 ч. 35 м.
Вид битрейта : Постоянный
Битрейт : 80,0 Кбит/сек
Каналы : 2 канала
Частота : 22,05 КГц
Метод сжатия : С потерями
Размер потока : 54,5 Мбайт (4%)
Выравнивание : Разделение по промежуткам
Продолжительность промежутка : 42 мс. (1,00 видеокадр)
Время предзагрузки промежутка : 500 мс.
Заголовок : Русский двухголосный закадровый (телеканал «Hallmark»)

Аудио #2
Идентификатор : 2
Формат : MPEG Audio
Версия формата : Version 1
Профиль формата : Layer 3
Режим : Joint stereo
Расширение режима : MS Stereo
Идентификатор кодека : 55
Идентификатор кодека/Подсказка : MP3
Продолжительность : 1 ч. 35 м.
Вид битрейта : Постоянный
Битрейт : 112 Кбит/сек
Каналы : 2 канала
Частота : 44,1 КГц
Метод сжатия : С потерями
Размер потока : 76,3 Мбайт (5%)
Выравнивание : Разделение по промежуткам
Продолжительность промежутка : 42 мс. (1,00 видеокадр)
Время предзагрузки промежутка : 500 мс.
Заголовок : Original
Библиотека кодирования : LAME3.98
Настройки программы : -m j -V 4 -q 3 -lowpass 15.6 -b 112
Скриншоты:



Реальная любовь / Love Actually (2003) BDRip

#777Русское название: Реальная любовь
Оригинальное название: Love Actually
Год выпуска: 2003
Производство: США, Великобритания
Жанр: Комедия, мелодрама
Перевод: Дублированный

Режиссер: Ричард Кертис
Актеры: Кира Найтли, Хью Грант, Билл Найи, Лора Линни, Колин Фёрт, Билли Боб Торнтон, Лиам Нисон, Алан Рикман, Эмма Томпсон, Роуэн Эткинсон, Родриго Санторо, Грегор Фишер

Описание фильма:
Любовь незабываемая и недосягаемая, вызывающая сожаление и экстатическая, неожиданная и нежеланная, неудобная и необъяснимая, неизящная и неравная. Любовь поистине правит всеми вокруг. От премьер-министра, мгновенно влюбившегося в сотрудницу своего аппарата, — до писателя, сбежавшего на юг Франции, чтобы склеить свое разбитое сердце…



Продолжительность: 02:14:52

Видеокодек: XviD
Битрейт видео: ~1347 kbps
Размер кадра: 720x304
Качество видео: BDRip
Аудио:
1. Русский, AC3, 2 ch, 192 kbps
Общее
Полное имя : \Элиша Катберт - Фильмография_NNM-CLUB\Реальная любовь (2003) BDRip_NNM-CLUB.avi
Формат : AVI
Формат/Информация : Audio Video Interleave
Размер файла : 1,46 Гбайт
Продолжительность : 2 ч. 14 м.
Общий поток : 1548 Кбит/сек
Программа кодирования : VirtualDubMod 1.5.10.3 | www.virtualdub-fr.org || (build 2550/release)
Библиотека кодирования : VirtualDubMod build 2550/release

Видео
Идентификатор : 0
Формат : MPEG-4 Visual
Профиль формата : Advanced Simple@L5
Параметр BVOP формата : 2
Параметр QPel формата : Нет
Параметр GMC формата : Без точки перехода
Параметр матрицы формата : Выборочная
Идентификатор кодека : XVID
Идентификатор кодека/Подсказка : XviD
Продолжительность : 2 ч. 14 м.
Битрейт : 1347 Кбит/сек
Ширина : 720 пикселей
Высота : 304 пикселя
Соотношение сторон : 2,35:1
Частота кадров : 23,976 кадра/сек
Цветовое пространство : YUV
Субдискретизация насыщенности : 4:2:0
Битовая глубина : 8 бит
Тип развёртки : Прогрессивная
Метод сжатия : С потерями
Бит/(Пиксели*Кадры) : 0.257
Размер потока : 1,27 Гбайт (87%)
Библиотека кодирования : XviD 64

Аудио
Идентификатор : 1
Формат : AC-3
Формат/Информация : Audio Coding 3
Расширение режима : CM (complete main)
Параметр Endianness формата : Big
Идентификатор кодека : 2000
Продолжительность : 2 ч. 14 м.
Вид битрейта : Постоянный
Битрейт : 192 Кбит/сек
Каналы : 2 канала
Расположение каналов : Front: L R
Частота : 48,0 КГц
Битовая глубина : 16 бит
Метод сжатия : С потерями
Размер потока : 185 Мбайт (12%)
Выравнивание : Разделение по промежуткам
Продолжительность промежутка : 42 мс. (1,00 видеокадр)
Время предзагрузки промежутка : 500 мс.
Скриншоты:



Старая закалка / Old School (2003) HDRip

#777Русское название: Старая закалка
Оригинальное название: Old School
Год выпуска: 2003
Производство: США
Жанр: Комедия
Перевод: Дублированный

Режиссер: Тодд Филлипс
Актеры: Люк Уилсон, Уилл Феррелл, Винс Вон, Джереми Пивен, Эллен Помпео, Джульетт Льюис, Леа Ремини, Перри Ривз, Крэйг Килборн, Элиша Катберт

Описание фильма:
Митчу, Френку и Берни уже за тридцатник, скоро они станут ответственными взрослыми, женятся, заведут семьи и найдут работу, а детство всё не перестаёт в них бурлить.
Очередной озорной придумкой становится попытка вновь пережить сладкие мгновения совместной учёбы в колледже, когда их слава гремела буквально по всем углам. Они снимают большой дом близ колледжа и устраивают в нём «студенческое братство»…



Продолжительность: 01:31:50

Видеокодек: XviD
Битрейт видео: ~2079 kbps
Размер кадра: 720x304
Качество видео: HDRip
Аудио:
1. Русский, AC3, 2 ch, 192 kbps
Общее
Полное имя : \Элиша Катберт - Фильмография_NNM-CLUB\Старая закалка (2003) HDRip_NNM-CLUB.avi
Формат : AVI
Формат/Информация : Audio Video Interleave
Размер файла : 1,46 Гбайт
Продолжительность : 1 ч. 31 м.
Общий поток : 2281 Кбит/сек
Программа кодирования : VirtualDubMod 1.5.10.2 (build 2540/release)
Библиотека кодирования : VirtualDubMod build 2540/release

Видео
Идентификатор : 0
Формат : MPEG-4 Visual
Профиль формата : Advanced Simple@L5
Параметр BVOP формата : 1
Параметр QPel формата : Нет
Параметр GMC формата : Без точки перехода
Параметр матрицы формата : Default (MPEG)
Идентификатор кодека : XVID
Идентификатор кодека/Подсказка : XviD
Продолжительность : 1 ч. 31 м.
Битрейт : 2080 Кбит/сек
Ширина : 720 пикселей
Высота : 304 пикселя
Соотношение сторон : 2,35:1
Частота кадров : 23,976 кадра/сек
Цветовое пространство : YUV
Субдискретизация насыщенности : 4:2:0
Битовая глубина : 8 бит
Тип развёртки : Прогрессивная
Метод сжатия : С потерями
Бит/(Пиксели*Кадры) : 0.396
Размер потока : 1,33 Гбайт (91%)
Библиотека кодирования : XviD 1.2.1 (UTC 2008-12-04)

Аудио
Идентификатор : 1
Формат : AC-3
Формат/Информация : Audio Coding 3
Расширение режима : CM (complete main)
Параметр Endianness формата : Big
Идентификатор кодека : 2000
Продолжительность : 1 ч. 31 м.
Вид битрейта : Постоянный
Битрейт : 192 Кбит/сек
Каналы : 2 канала
Расположение каналов : Front: L R
Частота : 48,0 КГц
Битовая глубина : 16 бит
Метод сжатия : С потерями
Размер потока : 126 Мбайт (8%)
Выравнивание : Разделение по промежуткам
Продолжительность промежутка : 42 мс. (1,00 видеокадр)
Время предзагрузки промежутка : 500 мс.
Скриншоты:



Соседка / The Girl Next Door (2004) BDRip

«Её невинность - его заблуждение»
#777Русское название: Соседка
Оригинальное название: The Girl Next Door
Год выпуска: 2004
Производство: США
Жанр: Мелодрама, комедия
Перевод: Дублированный

Режиссер: Люк Гринфилд
Актеры: Эмиль Хирш, Элиша Кетберт, Тимоти Олифэнт, Джеймс Ремар, Крис Маркетт, Пол Дано, Тимоти Боттомс, Донна Баллок, Джейкоб Янг, Брайан Колодзей

Описание фильма:
Старшеклассник Меттью, мечтая о карьере политика, между тем обнаруживает, что у него появилась новая соседка, неотразимая 19-летняя блондинка Дениэль. Цветочно-конфетная стадия пролетает мимолетно, и вот уже ослепленной любовью Меттью уверен, что он нашел женщину всей своей жизни.
Каково же было его изумление, когда он вместе со всем городом узнаёт, что она — бывшая порнозвезда. И чтобы удержать ее, ему теперь придется рискнуть креслом сенатора и пройти испытание, к которому он не был готов…



Продолжительность: 01:49:28

Видеокодек: XviD
Битрейт видео: ~1698 kbps
Размер кадра: 720x384
Качество видео: BDRip
Аудио:
1. Русский, AC3, 2 ch, 192 kbps
Общее
Полное имя : \Элиша Катберт - Фильмография_NNM-CLUB\Соседка (2004) BDRip_NNM-CLUB.avi
Формат : AVI
Формат/Информация : Audio Video Interleave
Размер файла : 1,45 Гбайт
Продолжительность : 1 ч. 49 м.
Общий поток : 1900 Кбит/сек
Программа кодирования : VirtualDubModRus 1.5.10.2 (build 2542/release)
Библиотека кодирования : VirtualDubMod build 2542/release

Видео
Идентификатор : 0
Формат : MPEG-4 Visual
Профиль формата : Advanced Simple@L5
Параметр BVOP формата : 1
Параметр QPel формата : Нет
Параметр GMC формата : Без точки перехода
Параметр матрицы формата : Выборочная
Идентификатор кодека : XVID
Идентификатор кодека/Подсказка : XviD
Продолжительность : 1 ч. 49 м.
Битрейт : 1698 Кбит/сек
Ширина : 720 пикселей
Высота : 384 пикселя
Соотношение сторон : 1,85:1
Частота кадров : 23,976 кадра/сек
Цветовое пространство : YUV
Субдискретизация насыщенности : 4:2:0
Битовая глубина : 8 бит
Тип развёртки : Прогрессивная
Метод сжатия : С потерями
Бит/(Пиксели*Кадры) : 0.256
Размер потока : 1,30 Гбайт (89%)
Библиотека кодирования : XviD 62

Аудио
Идентификатор : 1
Формат : AC-3
Формат/Информация : Audio Coding 3
Расширение режима : CM (complete main)
Параметр Endianness формата : Big
Идентификатор кодека : 2000
Продолжительность : 1 ч. 49 м.
Вид битрейта : Постоянный
Битрейт : 192 Кбит/сек
Каналы : 2 канала
Расположение каналов : Front: L R
Частота : 48,0 КГц
Битовая глубина : 16 бит
Метод сжатия : С потерями
Размер потока : 150 Мбайт (10%)
Выравнивание : Разделение по промежуткам
Продолжительность промежутка : 42 мс. (1,00 видеокадр)
Время предзагрузки промежутка : 500 мс.
Скриншоты:



Дом восковых фигур / House of Wax (2005) HDRip

#777Русское название: Дом восковых фигур
Оригинальное название: House of Wax
Год выпуска: 2005
Производство: США
Жанр: Ужасы, Триллер
Перевод: Дублированный

Режиссер: Хаум Серра
Актеры: Элиша Катберт, Чад Майкл Мюррэй, Брайан Ван Холт, Пэрис Хилтон, Джаред Падалеки, Джон Абрахамс, Роберт Ричард, Драгици Деберт, Томас Адамсон, Мюррэй Смит

Описание фильма:
Автомобиль ломается, и компании молодых людей приходится обратиться за помощью к обитателям маленького заброшенного городка. Главной достопримечательностью этой местности, безусловно, является дом с большим количеством очень уж реалистичных восковых фигур.
Страх неминуемо настигает незваных гостей, когда они узнают, что кое-кто хочет расширить свою коллекцию, заполнив весь город трупами убитых ими случайных приезжих, и покрыв их тела воском. Друзьям придется найти выход из положения, если они не хотят оказаться постоянными экспонатами Дома восковых фигур…



Продолжительность: 01:52:44

Видеокодек: XviD
Битрейт видео: ~1357 kbps
Размер кадра: 720x400
Качество видео: HDRip
Аудио:
1. Русский, AC3, 6 ch, 448 kbps
Общее
Полное имя : \Элиша Катберт - Фильмография_NNM-CLUB\Дом восковых фигур (2005) HDRip_NNM-CLUB.avi
Формат : AVI
Формат/Информация : Audio Video Interleave
Размер файла : 1,43 Гбайт
Продолжительность : 1 ч. 52 м.
Общий поток : 1815 Кбит/сек
Программа кодирования : VirtualDubMod 1.5.10.2 (build 2540/release)
Библиотека кодирования : VirtualDubMod build 2540/release

Видео
Идентификатор : 0
Формат : MPEG-4 Visual
Профиль формата : Advanced Simple@L5
Параметр BVOP формата : 1
Параметр QPel формата : Нет
Параметр GMC формата : Без точки перехода
Параметр матрицы формата : Default (MPEG)
Идентификатор кодека : XVID
Идентификатор кодека/Подсказка : XviD
Продолжительность : 1 ч. 52 м.
Битрейт : 1358 Кбит/сек
Ширина : 720 пикселей
Высота : 400 пикселей
Соотношение сторон : 16:9
Частота кадров : 23,976 кадра/сек
Цветовое пространство : YUV
Субдискретизация насыщенности : 4:2:0
Битовая глубина : 8 бит
Тип развёртки : Прогрессивная
Метод сжатия : С потерями
Бит/(Пиксели*Кадры) : 0.197
Размер потока : 1,07 Гбайт (75%)
Библиотека кодирования : XviD 1.2.1 (UTC 2008-12-04)

Аудио
Идентификатор : 1
Формат : AC-3
Формат/Информация : Audio Coding 3
Расширение режима : CM (complete main)
Параметр Endianness формата : Big
Идентификатор кодека : 2000
Продолжительность : 1 ч. 52 м.
Вид битрейта : Постоянный
Битрейт : 448 Кбит/сек
Каналы : 6 каналов
Расположение каналов : Front: L C R, Side: L R, LFE
Частота : 48,0 КГц
Битовая глубина : 16 бит
Метод сжатия : С потерями
Задержка видео : 1 с. 200 мс.
Размер потока : 361 Мбайт (25%)
Выравнивание : Разделение по промежуткам
Продолжительность промежутка : 42 мс. (1,00 видеокадр)
Время предзагрузки промежутка : 500 мс.
Скриншоты:



Душа Тишины / The Quiet (2005) DVDRip

#777Русское название: Душа Тишины
Оригинальное название: The Quiet
Год выпуска: 2005
Производство: США
Жанр: Триллер, драма
Перевод: Многоголосый закадровый, профессиональный

Режиссер: Джеми Бэббит
Актеры: Элиша Катберт, Камилла Белль, Мартин Донован, Иди Фалко, Шон Эшмор, Кэти Миксон

Описание фильма:
Может время узнать ваши тайны уже наступило? Знаменитая и богатая, благополучная и красивая - у нее есть все, но все может отобрать приемный глухонемой подросток… Как же решить этот вопрос? Как избавиться от сиротки? Глухонемая девушка Дот вынуждена жить у своих крёстных родителей Пола и Оливии Дир и их дочери Нины, местной чирлидерши и самой популярной девушки. Все члены семьи, а также школьные друзья Нины испытывают странное очарование тихой Дот и начинают доверять ей самые тёмные свои секреты. Дот молчаливо выслушивает душеизлияния своих новых «друзей», которые не подозревают, что самая тёмная тайна, которую хранит девушка - её собственная, а не их...



Продолжительность: 01:32:00

Видеокодек: XviD
Битрейт видео: ~1606 kbps
Размер кадра: 720x304
Качество видео: DVDRip
Аудио:
1. Русский, AC3, 6 ch, 448 kbps
2. Русский, AC3, 2 ch, 192 kbps
Общее
Полное имя : \Элиша Катберт - Фильмография_NNM-CLUB\Душа Тишины (2005) DVDRip_NNM-CLUB.avi
Формат : AVI
Формат/Информация : Audio Video Interleave
Размер файла : 1,45 Гбайт
Продолжительность : 1 ч. 32 м.
Общий поток : 2262 Кбит/сек
Программа кодирования : VirtualDubMod 1.5.10.2 (build 2540/release)
Библиотека кодирования : VirtualDubMod build 2540/release

Видео
Идентификатор : 0
Формат : MPEG-4 Visual
Профиль формата : Advanced Simple@L5
Параметр BVOP формата : 1
Параметр QPel формата : Нет
Параметр GMC формата : Без точки перехода
Параметр матрицы формата : Выборочная
Идентификатор кодека : XVID
Идентификатор кодека/Подсказка : XviD
Продолжительность : 1 ч. 32 м.
Битрейт : 1608 Кбит/сек
Ширина : 720 пикселей
Высота : 304 пикселя
Соотношение сторон : 2,35:1
Частота кадров : 25,000 кадров/сек
Цветовое пространство : YUV
Субдискретизация насыщенности : 4:2:0
Битовая глубина : 8 бит
Тип развёртки : Прогрессивная
Метод сжатия : С потерями
Бит/(Пиксели*Кадры) : 0.294
Размер потока : 1,03 Гбайт (71%)
Библиотека кодирования : XviD 1.2.1 (UTC 2008-12-04)

Аудио #1
Идентификатор : 1
Формат : AC-3
Формат/Информация : Audio Coding 3
Расширение режима : CM (complete main)
Параметр Endianness формата : Big
Идентификатор кодека : 2000
Продолжительность : 1 ч. 31 м.
Вид битрейта : Постоянный
Битрейт : 448 Кбит/сек
Каналы : 6 каналов
Расположение каналов : Front: L C R, Side: L R, LFE
Частота : 48,0 КГц
Битовая глубина : 16 бит
Метод сжатия : С потерями
Размер потока : 295 Мбайт (20%)
Выравнивание : Соединение по промежуткам
Продолжительность промежутка : 40 мс. (1,00 видеокадр)
Время предзагрузки промежутка : 512 мс.

Аудио #2
Идентификатор : 2
Формат : AC-3
Формат/Информация : Audio Coding 3
Расширение режима : CM (complete main)
Параметр Endianness формата : Big
Идентификатор кодека : 2000
Продолжительность : 1 ч. 32 м.
Вид битрейта : Постоянный
Битрейт : 192 Кбит/сек
Каналы : 2 канала
Расположение каналов : Front: L R
Частота : 48,0 КГц
Битовая глубина : 16 бит
Метод сжатия : С потерями
Размер потока : 126 Мбайт (8%)
Выравнивание : Разделение по промежуткам
Продолжительность промежутка : 40 мс. (1,00 видеокадр)
Время предзагрузки промежутка : 500 мс.
Скриншоты:



Похищение / Captivity (2007) DVDRip

#777Русское название: Похищение
Оригинальное название: Captivity
Год выпуска: 2007
Производство: США
Жанр: Триллер, драма, криминал
Перевод: Дублированный

Режиссер: Роланд Жоффе
Актеры: Элиша Катберт, Дэниэл Гиллис, Прюитт Тейлор Винс, Майкл Харни

Описание фильма:
На вечеринке популярная фотомодель Джениффер Три неожиданно теряет сознание после выпитого коктейля. Она оказывается в подвале частного жилого дома, понимает, что похищена.Вскоре за стеклянной стеной, разделяющей комнаты, она обнаруживает также плененного молодого человека — водителя Гарри. Молодые люди общаются через стекло, надеясь на побег. С целью избежать судьбы предыдущих жертв маньяка, они пробуют бежать, но каждый раз попадают в искусно расставленную ловушку.



Продолжительность: 01:32:00

Видеокодек: XviD
Битрейт видео: ~1733 kbps
Размер кадра: 672x304
Качество видео: DVDRip
Аудио:
1. Русский, AC3, 6 ch, 384 kbps
Общее
Полное имя : \Элиша Катберт - Фильмография_NNM-CLUB\Похищение (2007) DVDRip_NNM-CLUB.avi
Формат : AVI
Формат/Информация : Audio Video Interleave
Размер файла : 1,37 Гбайт
Продолжительность : 1 ч. 32 м.
Общий поток : 2127 Кбит/сек
Программа кодирования : VirtualDubMod 1.5.4.1 (build 2178/release)
Библиотека кодирования : VirtualDub build 30009/release

Видео
Идентификатор : 0
Формат : MPEG-4 Visual
Профиль формата : Advanced Simple@L5
Параметр BVOP формата : 2
Параметр QPel формата : Нет
Параметр GMC формата : Без точки перехода
Параметр матрицы формата : Default (H.263)
Режим смешивания : Сжатый битовый поток
Идентификатор кодека : XVID
Идентификатор кодека/Подсказка : XviD
Продолжительность : 1 ч. 32 м.
Битрейт : 1733 Кбит/сек
Ширина : 672 пикселя
Высота : 304 пикселя
Соотношение сторон : 2,2:1
Частота кадров : 25,000 кадров/сек
Цветовое пространство : YUV
Субдискретизация насыщенности : 4:2:0
Битовая глубина : 8 бит
Тип развёртки : Прогрессивная
Метод сжатия : С потерями
Бит/(Пиксели*Кадры) : 0.339
Размер потока : 1,11 Гбайт (81%)
Библиотека кодирования : XviD 1.2.1 (UTC 2008-12-04)

Аудио
Идентификатор : 1
Формат : AC-3
Формат/Информация : Audio Coding 3
Расширение режима : CM (complete main)
Параметр Endianness формата : Big
Идентификатор кодека : 2000
Продолжительность : 1 ч. 31 м.
Вид битрейта : Постоянный
Битрейт : 384 Кбит/сек
Каналы : 6 каналов
Расположение каналов : Front: L C R, Side: L R, LFE
Частота : 48,0 КГц
Битовая глубина : 16 бит
Метод сжатия : С потерями
Размер потока : 253 Мбайт (18%)
Выравнивание : Разделение по промежуткам
Продолжительность промежутка : 40 мс. (1,00 видеокадр)
Время предзагрузки промежутка : 500 мс.
Скриншоты:



Он был тихоней / He Was a Quiet Man (2007) HDRip

#777Русское название: Он был тихоней
Оригинальное название: He Was a Quiet Man
Год выпуска: 2007
Производство: США
Жанр: Драма, триллер, мелодрама
Перевод: Двухголосый закадровый, профессиональный

Режиссер: Фрэнк А. Каппелло
Актеры: Кристиан Слэйтер, Элиша Катберт, Уильям Х. Мэйси, Саша Нопф, Джеймисон Джонс, Джон Гулажер, Дэвид Уэллс, Кристина Лоусон, Лиза Арианна, Фрэнки Торн, Майкл ДеЛуис

Описание фильма:
У Боба Маконэла очередной паршивый день. Каждодневные трудовые восемь часов прозябания в унылом сером кабинете, игнорирование его присутствия всеми сотрудниками, очередные насмешки... Его нет. Он не существует. Но этот день выдался особенно паршивым. Внезапные события переворачивают жизнь Боба и он спасает некую Ванессу от смерти...



Продолжительность: 01:35:26

Видеокодек: XviD
Битрейт видео: ~1735 kbps
Размер кадра: 720x400
Качество видео: HDRip
Аудио:
1. Русский, AC3, 6 ch, 448 kbps
Общее
Полное имя : \Элиша Катберт - Фильмография_NNM-CLUB\Он был тихоней (2007) HDRip_NNM-CLUB.avi
Формат : AVI
Формат/Информация : Audio Video Interleave
Размер файла : 1,46 Гбайт
Продолжительность : 1 ч. 35 м.
Общий поток : 2193 Кбит/сек
Название фильма : On.Byl.Tikhoney.2007.XviD.HDRip
Жанр : Drama
Программа кодирования : VirtualDubMod 1.5.10.3 | www.virtualdub-fr.org || (build 2550/release)
Формат оригинала/Имя : Movie
Правообладатель : Rip by AMAPAHT
Примечание : All Films &  .org

Видео
Идентификатор : 0
Формат : MPEG-4 Visual
Профиль формата : Advanced Simple@L5
Параметр BVOP формата : 1
Параметр QPel формата : Нет
Параметр GMC формата : Без точки перехода
Параметр матрицы формата : Выборочная
Идентификатор кодека : XVID
Идентификатор кодека/Подсказка : XviD
Продолжительность : 1 ч. 35 м.
Битрейт : 1735 Кбит/сек
Ширина : 720 пикселей
Высота : 400 пикселей
Соотношение сторон : 16:9
Частота кадров : 23,976 кадра/сек
Цветовое пространство : YUV
Субдискретизация насыщенности : 4:2:0
Битовая глубина : 8 бит
Тип развёртки : Прогрессивная
Метод сжатия : С потерями
Бит/(Пиксели*Кадры) : 0.251
Размер потока : 1,16 Гбайт (79%)
Библиотека кодирования : XviD 64

Аудио
Идентификатор : 1
Формат : AC-3
Формат/Информация : Audio Coding 3
Расширение режима : CM (complete main)
Параметр Endianness формата : Big
Идентификатор кодека : 2000
Продолжительность : 1 ч. 35 м.
Вид битрейта : Постоянный
Битрейт : 448 Кбит/сек
Каналы : 6 каналов
Расположение каналов : Front: L C R, Side: L R, LFE
Частота : 48,0 КГц
Битовая глубина : 16 бит
Метод сжатия : С потерями
Размер потока : 306 Мбайт (20%)
Выравнивание : Разделение по промежуткам
Продолжительность промежутка : 42 мс. (1,00 видеокадр)
Время предзагрузки промежутка : 500 мс.
Скриншоты:



Дрянная девчонка / My Sassy Girl (2008) DVDRip

#777Русское название: Дрянная девчонка
Оригинальное название: My Sassy Girl
Год выпуска: 2008
Производство: США
Жанр: Комедия, Мелодрама
Перевод: Дублированный

Режиссер: Янн Самюэль
Актеры: Элиша Катберт, Джесси, Брэдфорд, Остин Басис, Крис Сарандон, Джей Пэттерсон, Том Элдридж, Луис Мустилльо, Брайан Редди, Старк Сэндс, Джоанна Глисон

Описание фильма:
Чарли — обыкновенный студент колледжа, который живет своей скучной жизнью. Однажды в метро он замечает симпатичную блондинку Джордан, которая пыталась броситься под электричку. Познакомившись, таким образом, с девушкой, Чарли продолжает с ней встречаться и узнает, что она красива, талантлива и …. сумасшедшая. Попадая в ряд довольно забавных переделок, Чарли старается завоевать ее сердце, а это оказывается ох как непросто…



Продолжительность: 01:31:27

Видеокодек: XviD
Битрейт видео: ~1836 kbps
Размер кадра: 720x400
Качество видео: DVDRip
Аудио:
1. Русский, AC3, 6 ch, 448 kbps
Общее
Полное имя : \Элиша Катберт - Фильмография_NNM-CLUB\Дрянная девчонка (2008) DVDRip_NNM-CLUB.avi
Формат : AVI
Формат/Информация : Audio Video Interleave
Размер файла : 1,47 Гбайт
Продолжительность : 1 ч. 31 м.
Общий поток : 2294 Кбит/сек
Программа кодирования : VirtualDubMod 1.5.10.2 (build 2540/release)
Библиотека кодирования : VirtualDubMod build 2540/release

Видео
Идентификатор : 0
Формат : MPEG-4 Visual
Профиль формата : Advanced Simple@L5
Параметр BVOP формата : 1
Параметр QPel формата : Нет
Параметр GMC формата : Без точки перехода
Параметр матрицы формата : Default (MPEG)
Идентификатор кодека : XVID
Идентификатор кодека/Подсказка : XviD
Продолжительность : 1 ч. 31 м.
Битрейт : 1836 Кбит/сек
Ширина : 720 пикселей
Высота : 400 пикселей
Соотношение сторон : 16:9
Частота кадров : 25,000 кадров/сек
Цветовое пространство : YUV
Субдискретизация насыщенности : 4:2:0
Битовая глубина : 8 бит
Тип развёртки : Прогрессивная
Метод сжатия : С потерями
Бит/(Пиксели*Кадры) : 0.255
Размер потока : 1,17 Гбайт (80%)
Библиотека кодирования : XviD 1.2.0.dev47 (UTC 2006-11-01)

Аудио
Идентификатор : 1
Формат : AC-3
Формат/Информация : Audio Coding 3
Расширение режима : CM (complete main)
Параметр Endianness формата : Big
Идентификатор кодека : 2000
Продолжительность : 1 ч. 31 м.
Вид битрейта : Постоянный
Битрейт : 448 Кбит/сек
Каналы : 6 каналов
Расположение каналов : Front: L C R, Side: L R, LFE
Частота : 48,0 КГц
Битовая глубина : 16 бит
Метод сжатия : С потерями
Размер потока : 293 Мбайт (20%)
Выравнивание : Разделение по промежуткам
Продолжительность промежутка : 40 мс. (1,00 видеокадр)
Время предзагрузки промежутка : 500 мс.
Скриншоты:



Шесть жен Генри Лефэя / The Six Wives of Henry Lefay (2009) BDRip

#777Русское название: Шесть жен Генри Лефэя
Оригинальное название: The Six Wives of Henry Lefay
Год выпуска: 2009
Производство: США
Жанр: Комедия
Перевод: Многоголосый закадровый, профессиональный

Режиссер: Ховард Гулд
Актеры: Элиша Катберт, Дженна Деван, Тим Аллен, Эрик Кристиан Олсен, Линдсэй Слоун, Энди МакДауэлл, Келли Гарнер, Дженна Элфмэн, Крис Клейн, Паз Вега

Описание фильма:
Состоятельный торговец Генри Лефэй бесследно пропадает во время отпуска. Предположив, что он мертв, его дочка возвращается домой, чтобы начать подготовку к похоронам.
Узнав печальную весть жена Генри и пять ее предшественниц начинают спор, кого из них покойный любил больше, и кто будет его хоронить.



Продолжительность: 01:35:09

Видеокодек: XviD
Битрейт видео: ~1798 kbps
Размер кадра: 720x304
Качество видео: BDRip
Аудио:
1. Русский, AC3, 6 ch, 384 kbps
Общее
Полное имя : \Элиша Катберт - Фильмография_NNM-CLUB\Шесть жен Генри Лефэя (2009) BDRip_NNM-CLUB.avi
Формат : AVI
Формат/Информация : Audio Video Interleave
Размер файла : 1,46 Гбайт
Продолжительность : 1 ч. 35 м.
Общий поток : 2192 Кбит/сек
Программа кодирования : VirtualDubMod 1.5.10.2 (build 2540/release)
Библиотека кодирования : VirtualDubMod build 2540/release

Видео
Идентификатор : 0
Формат : MPEG-4 Visual
Профиль формата : Advanced Simple@L5
Параметр BVOP формата : 1
Параметр QPel формата : Нет
Параметр GMC формата : Без точки перехода
Параметр матрицы формата : Выборочная
Идентификатор кодека : XVID
Идентификатор кодека/Подсказка : XviD
Продолжительность : 1 ч. 35 м.
Битрейт : 1798 Кбит/сек
Ширина : 720 пикселей
Высота : 304 пикселя
Соотношение сторон : 2,35:1
Частота кадров : 23,976 кадра/сек
Цветовое пространство : YUV
Субдискретизация насыщенности : 4:2:0
Битовая глубина : 8 бит
Тип развёртки : Прогрессивная
Метод сжатия : С потерями
Бит/(Пиксели*Кадры) : 0.343
Размер потока : 1,20 Гбайт (82%)
Библиотека кодирования : XviD 1.2.1 (UTC 2008-12-04)

Аудио
Идентификатор : 1
Формат : AC-3
Формат/Информация : Audio Coding 3
Расширение режима : CM (complete main)
Параметр Endianness формата : Big
Идентификатор кодека : 2000
Продолжительность : 1 ч. 35 м.
Вид битрейта : Постоянный
Битрейт : 384 Кбит/сек
Каналы : 6 каналов
Расположение каналов : Front: L C R, Side: L R, LFE
Частота : 48,0 КГц
Битовая глубина : 16 бит
Метод сжатия : С потерями
Размер потока : 261 Мбайт (18%)
Выравнивание : Разделение по промежуткам
Продолжительность промежутка : 42 мс. (1,00 видеокадр)
Время предзагрузки промежутка : 500 мс.

Описание фильма:
Элиша Катберт — страстный хоккейный болельщик и обладатель сезонного билета на матчи хоккейной команды Los Angeles Kings. В 2005 году она завела блог на сайте НХЛ, хотя не пишет туда часто. Также она встречалась с игроком команды — Los Angeles Kings Шоном Эвери. В настоящее время встречается с игроком команды Toronto Maple Leafs Дионом Фанёфом.

Жанр: Комедия, мелодрама, драма, семейный, мистика, ужасы

Режиссер: Ховард Гулд, Янн Самюэль, Фрэнк А. Каппелло, Роланд Жоффе, Джеми Бэббит, Хаум Серра, Люк Гринфилд, Тодд Филлипс и др.

Актеры: Элиша Катберт и др.

Перевод: Дублированный, профессиональный многоголосый

Продолжительность: 25:38:37
Скриншоты:



Скриншоты:


Правила, инструкции, FAQ!!!
Торрент  Добавлен [06 ноя 2013, 23:24] Скачать торрент Магнет ссылка
Скачать торрент
[ Размер 54.52 КБ / Просмотров 36 ]

Статус  
 
Размер  20.59 ГБ
Приватный: Нет (DHT включён)
.torrent скачан  0
Как залить торрент? | Как скачать Torrent? | Ошибка в торренте? Качайте магнет  


     Отправить личное сообщение
   
Страница 1 из 1
Показать сообщения за:  Поле сортировки  
Начать новую тему Ответить на тему

   Похожие торренты   Автор   Ответы   Просмотры   Последнее сообщение 
В этой теме нет новых непрочитанных сообщений. Скачать торрент Проверен Шон Коннери: Фильмография / Sean Connery: Filmography (1957 - 2003) BDRip HDRip HDTVRip DVDRip SATRip

в форуме Антологии, Размер: 118.92 ГБ, Здоровье: 11%

Гость

0
18|151

602
0

09 фев 2016, 21:03

Гость Перейти к последнему сообщению

В этой теме нет новых непрочитанных сообщений. Скачать торрент Проверен Брэд Питт: Фильмография / Brad Pitt: Filmography (1987 - 2014) BDRip HDRip HDTVRip DVDRip SATRip

в форуме Антологии, Размер: 123.45 ГБ, Здоровье: 100%

Гость

0
33|25

839
2

29 фев 2016, 22:45

Гость Перейти к последнему сообщению

В этой теме нет новых непрочитанных сообщений. Скачать торрент Обновлён Джеки Чан: Фильмография / Jackie Chan: Filmography (1966 - 2016) VHSRip, DVDRip, HDRip, BDRip

в форуме Антологии, Размер: 166.74 ГБ, Здоровье: 33%

Гость

0
19|57

1412
2

22 фев 2014, 23:56

Гость Перейти к последнему сообщению

В этой теме нет новых непрочитанных сообщений. Скачать торрент Проверен [iPod] Подводная одиссея команды Кусто, фильмография / Underwater Odyssey of a command of Cousteau, filmography (90 фильмов из 129) (Жак-Ив Кусто / Jacque-willows Cousteau) [1943-1998, документальный, DVDRip/SATRip, 320х240]

в форуме Фильмы для iPod, iPhone, iPad, Размер: 20.83 ГБ, Здоровье: 100%

Гость

0
9|3

199
0

13 май 2015, 23:56

Гость Перейти к последнему сообщению

В этой теме нет новых непрочитанных сообщений. Скачать торрент Проверен Леонид Иович Гайдай / Фильмография (1956 - 1992) DVDRip, SATRip, [H.264]

в форуме Комедии, Размер: 22.81 ГБ, Здоровье: 100%

Anonymous

0
176|138

812
1

05 июл 2014, 23:36

Anonymous Перейти к последнему сообщению



Сейчас этот форум просматривают: нет зарегистрированных пользователей и гости: 0


Вы не можете начинать темы
Вы не можете отвечать на сообщения
Вы не можете редактировать свои сообщения
Вы не можете удалять свои сообщения
Вы не можете добавлять вложения

Перейти:  
Ресурс не предоставляет электронные версии произведений, а занимается лишь коллекционированием и каталогизацией ссылок, присылаемых и публикуемых на форуме нашими читателями. Если вы являетесь правообладателем какого-либо представленного материала и не желаете чтобы ссылка на него находилась в нашем каталоге, свяжитесь с нами и мы незамедлительно удалим её. Файлы для обмена на трекере предоставлены пользователями сайта, и администрация не несёт ответственности за их содержание. Просьба не заливать файлы, защищенные авторскими правами, а также файлы нелегального содержания!
cron