На всех торрентах на трекере установлена скидка на скачивание в размере 100 процентов(а).
 Возможность скачивания торрента НЕ зависит от ограничений при низком ратио, низком аплоаде, требуемом ратио или требуемом аплоаде.


Начать новую тему Ответить на тему
Статистика раздачи
Размер: 11.99 ГБ | Добавлен: 18 июл 2018, 16:32 | Скачали: 182
Сидеров: 54  [0 байт/сек]    Личеров: 7  [0 байт/сек]
Пред. тема | След. тема 

Автор
Сообщение

СообщениеДобавлено: 18 июл 2018, 16:32 

Ответить с цитатой 

Информация о фильме
Название: Дикие сердцем
Оригинальное название: Wild at Heart
Год выхода: 1990
Жанр: Триллер, драма, комедия, криминал
Страна: США
Продолжительность: 02:04:55
Перевод: Профессиональный многоголосый, авторский одноголосый
Режиссёр: Дэвид Линч / David Lynch
В ролях: Николас Кейдж, Лора Дерн, Изабелла Росселлини, Криспин Гловер Дайэн Лэдд, Уильям Дефо, Хэрри Дин Стэнтон

О фильме
Дикие сердцем - это бешеная любовь и приключения двух молодых людей. Сейлор и Лула спасаются от безжалостной команды наемных убийц, нанятых безумной матерью Лулы Мариэттой. В погоню за беглецами вначале пускается дружок Мариэтты, частный детектив Джонни, а когда Джонни возвращается ни с чем, Мариэтта призывает на помощь своего бывшего любовника, гангстера Сантоса... Чувственный фильм культового режиссера Дэвида Линча, удостоенный главного приза за лучший фильм Каннского фестиваля в 1990 - "Золотой пальмовой ветви", - по-настоящему роскошное зрелище. Именно успех фильма "Дикие сердцем" стал определяющим обстоятельством в присуждении Дэвиду Линчу неофициального звания "лучший режиссёр американского кино" при проведении опроса критиков разных стран.



Файл
Качество: BDRip 720p
Видео: MPEG-4 AVC, 1280x544 (2.35:1), 10500 kbps, 23.976 fps
Аудио 1: Russian: 48 kHz, AC3, 5.1 ch, 384 kbps - MVO, R5
Аудио 2: Russian: 48 kHz, AC3, 2.0 ch, 384 kbps - MVO, Студия Нота
Аудио 3: Russian: 48 kHz, AC3, 2.0 ch, 192 kbps - MVO, Первый канал
Аудио 4: Russian: 48 kHz, AC3, 5.1 ch, 448 kbps - AVO, Д. Есарев
Аудио 5: Russian: 48 kHz, AC3, 5.1 ch, 448 kbps - AVO, M. Яроцкий
Аудио 6: Russian: 48 kHz, AC3, 2.0 ch, 192 kbps - AVO, А. Михалёв
Аудио 7: Ukrainian: 48 kHz, AC3, 5.1 ch, 448 kbps - DVO
Аудио 8: English: 48 kHz, AC3, 5.1 ch, 448 kbps - Оригинал
Субтитры: Русские, английские
Навигация по главам: есть

Релиз от:

[*]В переводе Михаила Яроцкого присутствует ненормативная лексика.
Оскар, 1991 год
Номинации (1):
Лучшая женская роль второго плана (Дайан Лэдд)

Золотой глобус, 1991 год
Номинации (1):
Лучшая женская роль второго плана (Дайан Лэдд)

Британская академия, 1991 год
Номинации (1):
Лучший звук

Каннский кинофестиваль, 1990 год
Победитель (1):
Золотая пальмовая ветвь



x264 [info]: frame I:1062 Avg QP:17.30 size: 149039
x264 [info]: frame P:31979 Avg QP:18.60 size: 86890
x264 [info]: frame B:146672 Avg QP:20.77 size: 48900
x264 [info]: consecutive B-frames: 0.9% 0.5% 2.2% 5.4% 10.8% 69.6% 5.9% 1.4% 1.2% 1.3% 0.6%

====================================================================

Общее
Уникальный идентификатор : 250135898958513635060780216496520823871 (0xBC2E6BFAE4158BBDAA643265D656043F)
Полное имя : Дикие.сердцем.1990.BDRip.720p.KORSAR.mkv
Формат : Matroska
Версия формата : Version 2
Размер файла : 12,0 Гбайт
Продолжительность : 2 ч. 4 м.
Общий поток : 13,7 Мбит/сек
Название фильма : Дикие.сердцем.1990.BDRip.720p.KORSAR
Дата кодирования : UTC 2018-07-17 11:13:44
Программа кодирования : mkvmerge v5.8.0 ('No Sleep / Pillow') built on Sep 2 2012 15:37:04
Библиотека кодирования : libebml v1.2.3 + libmatroska v1.3.0

Видео
Идентификатор : 1
Формат : AVC
Формат/Информация : Advanced Video Codec
Профиль формата : High@L4.1
Параметр CABAC формата : Да
Параметр RefFrames формата : 12 кадров
Идентификатор кодека : V_MPEG4/ISO/AVC
Продолжительность : 2 ч. 4 м.
Битрейт : 10,5 Мбит/сек
Ширина : 1280 пикселей
Высота : 544 пикселя
Соотношение сторон : 2,35:1
Режим частоты кадров : Постоянный
Частота кадров : 23,976 (24000/1001) кадра/сек
Цветовое пространство : YUV
Субдискретизация насыщенности : 4:2:0
Битовая глубина : 8 бит
Тип развёртки : Прогрессивная
Бит/(Пиксели*Кадры) : 0.630
Размер потока : 9,18 Гбайт (77%)
Библиотека кодирования : x264 core 152 r2851kMod ba24899
Настройки программы : cabac=1 / ref=12 / deblock=1:-3:-2 / analyse=0x3:0x113 / me=umh / subme=10 / psy=1 / fade_compensate=0.00 / psy_rd=1.00:0.10 / mixed_ref=1 / me_range=40 / chroma_me=1 / trellis=2 / 8x8dct=1 / cqm=0 / deadzone=21,11 / fast_pskip=1 / chroma_qp_offset=-3 / threads=12 / lookahead_threads=3 / sliced_threads=0 / nr=0 / decimate=1 / interlaced=0 / bluray_compat=0 / constrained_intra=0 / bframes=10 / b_pyramid=2 / b_adapt=2 / b_bias=0 / direct=1 / weightb=1 / open_gop=0 / weightp=2 / keyint=240 / keyint_min=23 / scenecut=40 / intra_refresh=0 / rc=crf / mbtree=0 / crf=17.8000 / qcomp=0.63 / qpmin=0 / qpmax=39 / qpstep=4 / ip_ratio=1.40 / pb_ratio=1.30 / aq=2:0.70
Язык : English
Default : Да
Forced : Нет
Цветовой диапазон : Limited
Основные цвета : BT.709
Характеристики трансфера : BT.709
Коэффициенты матрицы : BT.709

Аудио #1
Идентификатор : 2
Формат : AC-3
Формат/Информация : Audio Coding 3
Параметр Endianness формата : Big
Идентификатор кодека : A_AC3
Продолжительность : 2 ч. 4 м.
Вид битрейта : Постоянный
Битрейт : 384 Кбит/сек
Каналы : 6 каналов
Расположение каналов : Front: L C R, Side: L R, LFE
Частота : 48,0 КГц
Частота кадров : 31,250 кадров/сек (1536 SPF)
Битовая глубина : 16 бит
Метод сжатия : С потерями
Размер потока : 343 Мбайт (3%)
Заголовок : MVO, R5
Язык : Russian
Default : Да
Forced : Нет

Аудио #2
Идентификатор : 3
Формат : AC-3
Формат/Информация : Audio Coding 3
Параметр Endianness формата : Big
Идентификатор кодека : A_AC3
Продолжительность : 2 ч. 4 м.
Вид битрейта : Постоянный
Битрейт : 384 Кбит/сек
Каналы : 2 канала
Расположение каналов : Front: L R
Частота : 48,0 КГц
Частота кадров : 31,250 кадров/сек (1536 SPF)
Битовая глубина : 16 бит
Метод сжатия : С потерями
Размер потока : 343 Мбайт (3%)
Заголовок : MVO, Студия Нота
Язык : Russian
Default : Нет
Forced : Нет

Аудио #3
Идентификатор : 4
Формат : AC-3
Формат/Информация : Audio Coding 3
Параметр Endianness формата : Big
Идентификатор кодека : A_AC3
Продолжительность : 2 ч. 4 м.
Вид битрейта : Постоянный
Битрейт : 192 Кбит/сек
Каналы : 2 канала
Расположение каналов : Front: L R
Частота : 48,0 КГц
Частота кадров : 31,250 кадров/сек (1536 SPF)
Битовая глубина : 16 бит
Метод сжатия : С потерями
Размер потока : 172 Мбайт (1%)
Заголовок : MVO, Первый канал
Язык : Russian
Default : Нет
Forced : Нет

Аудио #4
Идентификатор : 5
Формат : AC-3
Формат/Информация : Audio Coding 3
Параметр Endianness формата : Big
Идентификатор кодека : A_AC3
Продолжительность : 2 ч. 4 м.
Вид битрейта : Постоянный
Битрейт : 448 Кбит/сек
Каналы : 6 каналов
Расположение каналов : Front: L C R, Side: L R, LFE
Частота : 48,0 КГц
Частота кадров : 31,250 кадров/сек (1536 SPF)
Битовая глубина : 16 бит
Метод сжатия : С потерями
Размер потока : 400 Мбайт (3%)
Заголовок : AVO, Д. Есарев
Язык : Russian
Default : Нет
Forced : Нет

Аудио #5
Идентификатор : 6
Формат : AC-3
Формат/Информация : Audio Coding 3
Параметр Endianness формата : Big
Идентификатор кодека : A_AC3
Продолжительность : 2 ч. 4 м.
Вид битрейта : Постоянный
Битрейт : 448 Кбит/сек
Каналы : 6 каналов
Расположение каналов : Front: L C R, Side: L R, LFE
Частота : 48,0 КГц
Частота кадров : 31,250 кадров/сек (1536 SPF)
Битовая глубина : 16 бит
Метод сжатия : С потерями
Размер потока : 400 Мбайт (3%)
Заголовок : AVO, М. Яроцкий
Язык : Russian
Default : Нет
Forced : Нет

Аудио #6
Идентификатор : 7
Формат : AC-3
Формат/Информация : Audio Coding 3
Параметр Endianness формата : Big
Идентификатор кодека : A_AC3
Продолжительность : 2 ч. 4 м.
Вид битрейта : Постоянный
Битрейт : 192 Кбит/сек
Каналы : 2 канала
Расположение каналов : Front: L R
Частота : 48,0 КГц
Частота кадров : 31,250 кадров/сек (1536 SPF)
Битовая глубина : 16 бит
Метод сжатия : С потерями
Размер потока : 172 Мбайт (1%)
Заголовок : AVO, А. Михалев
Язык : Russian
Default : Нет
Forced : Нет

Аудио #7
Идентификатор : 8
Формат : AC-3
Формат/Информация : Audio Coding 3
Параметр Endianness формата : Big
Идентификатор кодека : A_AC3
Продолжительность : 2 ч. 4 м.
Вид битрейта : Постоянный
Битрейт : 448 Кбит/сек
Каналы : 6 каналов
Расположение каналов : Front: L C R, Side: L R, LFE
Частота : 48,0 КГц
Частота кадров : 31,250 кадров/сек (1536 SPF)
Битовая глубина : 16 бит
Метод сжатия : С потерями
Размер потока : 400 Мбайт (3%)
Заголовок : DVO
Язык : Ukrainian
Default : Нет
Forced : Нет

Аудио #8
Идентификатор : 9
Формат : AC-3
Формат/Информация : Audio Coding 3
Параметр Endianness формата : Big
Идентификатор кодека : A_AC3
Продолжительность : 2 ч. 4 м.
Вид битрейта : Постоянный
Битрейт : 448 Кбит/сек
Каналы : 6 каналов
Расположение каналов : Front: L C R, Side: L R, LFE
Частота : 48,0 КГц
Частота кадров : 31,250 кадров/сек (1536 SPF)
Битовая глубина : 16 бит
Метод сжатия : С потерями
Размер потока : 400 Мбайт (3%)
Заголовок : Original
Язык : English
Default : Нет
Forced : Нет

Текст #1
Идентификатор : 10
Формат : UTF-8
Идентификатор кодека : S_TEXT/UTF8
Идентификатор кодека/Информация : UTF-8 Plain Text
Заголовок : Яроцкий (песни)
Язык : Russian
Default : Нет
Forced : Нет

Текст #2
Идентификатор : 11
Формат : UTF-8
Идентификатор кодека : S_TEXT/UTF8
Идентификатор кодека/Информация : UTF-8 Plain Text
Язык : Russian
Default : Нет
Forced : Нет

Текст #3
Идентификатор : 12
Формат : UTF-8
Идентификатор кодека : S_TEXT/UTF8
Идентификатор кодека/Информация : UTF-8 Plain Text
Язык : English
Default : Нет
Forced : Нет

Меню
00:00:00.000 : en:
00:07:54.098 : en:
00:18:08.670 : en:
00:26:52.736 : en:
00:35:41.347 : en:
00:46:39.087 : en:
00:54:38.900 : en:
01:10:07.036 : en:
01:21:14.077 : en:
01:35:32.727 : en:
01:49:15.757 : en:
02:00:53.079 : en:
Правила, инструкции, FAQ!!!
Торрент  Добавлен [18 июл 2018, 16:32] Скачать торрент Магнет ссылка
Скачать торрент
[ Размер 60.95 КБ / Просмотров 48 ]

Статус
Проверен 
 
Размер  11.99 ГБ
Приватный: Нет (DHT включён)
.torrent скачан  182
Как залить торрент? | Как скачать Torrent? | Ошибка в торренте? Качайте магнет  


     Отправить личное сообщение
   
Страница 1 из 1
Показать сообщения за:  Поле сортировки  
Начать новую тему Ответить на тему

   Похожие торренты   Автор   Ответы   Просмотры   Последнее сообщение 
В этой теме нет новых непрочитанных сообщений. Скачать торрент Проверен Дикие сердцем / Wild at Heart (1990) BDRip

в форуме Триллеры, Размер: 2.19 ГБ, Здоровье: 100%

Гость

0
25|0

55
1

18 июл 2018, 16:39

Гость Перейти к последнему сообщению

В этой теме нет новых непрочитанных сообщений. Скачать торрент Проверен Король Ральф / King Ralph (1991) BDRip 720p от KORSAR | P, A

в форуме 720p | 1080p, Размер: 7.86 ГБ, Здоровье: 66%

Anonymous

0
4|6

96
1

08 апр 2018, 09:14

Anonymous Перейти к последнему сообщению

В этой теме нет новых непрочитанных сообщений. Скачать торрент Проверен Очень дикие штучки / Very Bad Things (1998) BDRip 720p

в форуме 720p | 1080p, Размер: 4.37 ГБ, Здоровье: 100%

Гость

0
26|2

206
41

06 апр 2016, 00:06

Гость Перейти к последнему сообщению

В этой теме нет новых непрочитанных сообщений. Скачать торрент Дикие гуси / The Wild Geese (1978) HDRip | P

в форуме Боевики, Размер: 1.45 ГБ, Здоровье: 100%

Anonymous

0
4|0

97
2

14 янв 2014, 09:39

Anonymous Перейти к последнему сообщению

В этой теме нет новых непрочитанных сообщений. Скачать торрент Дикие гуси 2 / Wild Geese II (1985) DVDRip | P

в форуме Боевики, Размер: 1.45 ГБ, Здоровье: 100%

Anonymous

0
1|0

103
3

14 янв 2014, 09:42

Anonymous Перейти к последнему сообщению



Сейчас этот форум просматривают: нет зарегистрированных пользователей и гости: 0


Вы не можете начинать темы
Вы не можете отвечать на сообщения
Вы не можете редактировать свои сообщения
Вы не можете удалять свои сообщения
Вы не можете добавлять вложения

Перейти:  
Ресурс не предоставляет электронные версии произведений, а занимается лишь коллекционированием и каталогизацией ссылок, присылаемых и публикуемых на форуме нашими читателями. Если вы являетесь правообладателем какого-либо представленного материала и не желаете чтобы ссылка на него находилась в нашем каталоге, свяжитесь с нами и мы незамедлительно удалим её. Файлы для обмена на трекере предоставлены пользователями сайта, и администрация не несёт ответственности за их содержание. Просьба не заливать файлы, защищенные авторскими правами, а также файлы нелегального содержания!
cron