На всех торрентах на трекере установлена скидка на скачивание в размере 100 процентов(а).
 Возможность скачивания торрента НЕ зависит от ограничений при низком ратио, низком аплоаде, требуемом ратио или требуемом аплоаде.


Начать новую тему Ответить на тему
Статистика раздачи
Размер: 5.63 ГБ | Добавлен: 20 июл 2018, 23:36 | Скачали: 138
Сидеров: 54  [0 байт/сек]    Личеров: 28  [0 байт/сек]
Пред. тема | След. тема 

Автор
Сообщение

СообщениеДобавлено: 20 июл 2018, 23:36 

Ответить с цитатой 

Название: Дагон
Оригинальное название: Dagon
Год выхода: 2001
Жанр: ужасы, фэнтези, триллер, детектив
Режиссер: Стюарт Гордон
В ролях: Эзра Годден (Paul Marsh), Франсиско Рабаль (Ezequiel), Ракель Мероньо (Bárbara), Макарена Гомес (Uxía Cambarro), Брендан Прайс (Howard), Биргит Бофарулл (Vicki), Уксия Бланко (Madre Ezequiel / Ezequiel's Mother), Ферран Лаос (Sacerdote / Priest), Хоан Мингель (Xavier Cambarro), Альфредо Вилья (Capitán Orfeo Cambarro / Captain Orpheus Cambarro), Хосе Лифанте (Recepcionista Hotel), Хавьер Сандоваль (Padre Ezequiel / Ezequiel's Father)
О фильме: Выброшенные на берег небольшого острова ужасным штормом Пауль и Барбара нашли прибежище в заброшенной рыбацкой деревушке. Когда Барбара неожиданно исчезает среди уродливых и отталкивающих местных жителей, Паулю приходится столкнуться с пугающей действительностью одинокого городка.

Пауль решается на жуткое расследование исчезновения Барбары в одиночку среди полного бездействия страшных обитателей деревушки. Но то, что обнаруживает Пауль в результате поисков вселяет страх и ужас и грозит опасностью всему миру.


MPAA: R - Лицам до 17 лет обязательно присутствие взрослого
Страна: Испания
Студия: Castelao Producciones S.A., Estudios Piccaso, Fantastic Factory (Filmax)
Продолжительность: 01:37:57
Перевод: Профессиональный (двухголосый, закадровый) R5 + Профессиональный (многоголосый, закадровый) PTP + Профессиональный (двухголосый, закадровый) + Профессиональный (двухголосый, закадровый) Екатеринбург Арт + Авторский (одноголосый, закадровый) А.Карповский + Авторский (одноголосый, закадровый) Ю.Сербин

Качество: BDRip 720p
Формат: Matroska
Видео: 1278x720 at 23.976 fps, x264@L4.1, ~5760 kbps avg
Аудио#1: Russian: 48 kHz, AC3 Dolby Digital, 3/2 (L,C,R,l,r) + LFE ch, ~448 kbps avg |Двухголосый закадровый, R5|
Аудио#2: Russian: 48 kHz, AC3 Dolby Digital, 2/0 (L,R) ch, ~192 kbps avg |Многоголосый закадровый, PTP|
Аудио#3: Russian: 48 kHz, AC3 Dolby Digital, 2/0 (L,R) ch, ~192 kbps avg |Двухголосый закадровый|
Аудио#4: Russian: 48 kHz, AC3 Dolby Digital, 2/0 (L,R) ch, ~192 kbps avg |Двухголосый закадровый, Екатеринбург Арт|
Аудио#5: Russian: 48 kHz, AC3 Dolby Digital, 3/2 (L,C,R,l,r) + LFE ch, ~384 kbps avg |Авторский, А.Карповский|
Аудио#6: Russian: 48 kHz, AC3 Dolby Digital, 3/2 (L,C,R,l,r) + LFE ch, ~448 kbps avg |Авторский, Ю.Сербин|
Аудио#7: English: 48 kHz, AC3 Dolby Digital, 3/2 (L,C,R,l,r) + LFE ch, ~448 kbps avg
Субтитры: Russian, English

***Сохранены оригинальные главы как на Blu-ray.
***Релиз: msltel.

Экранизация произведений Говарда Филлипса Лавкрафта «Дагон» и «Морок над Инсмутом».
Фильм снимался в Испании. Деревня, на фоне которой происходит действие фильма, практически не изменялась при её съёмках.
Сценарий к фильму был написан уже более 15 лет назад. Основной причиной отказа продюсеров от фильма были рыболюди, которых продюсеры просили заменить на оборотней или вампиров.
[*]На футболке Пола написано «Мискатоник». Имелось в виду название вымышленного Мискатоникского университета, названного так по имени вымышленной реки Мискатоник, протекающей через вымышленный город Аркхэм из рассказов Говарда Филлипса Лавкрафта.
Общее
Уникальный идентификатор : 214174604294562986446604744265511446652 (0xA120874381AEEC3EA69F69468C3BA87C)
Полное имя : Dagon.2001.BDRip.720p by msltel.mkv
Формат : Matroska
Версия формата : Version 4 / Version 2
Размер файла : 5,63 Гбайт
Продолжительность : 1 ч. 37 м.
Общий поток : 8227 Кбит/сек
Название фильма : Rip by msltel
Дата кодирования : UTC 2017-05-26 15:00:20
Программа кодирования : mkvmerge v8.2.0 ('World of Adventure') 64bit
Библиотека кодирования : libebml v1.3.1 + libmatroska v1.4.2

Видео
Идентификатор : 1
Формат : AVC
Формат/Информация : Advanced Video Codec
Профиль формата : High@L4.1
Параметр CABAC формата : Да
Параметр ReFrames формата : 9 кадров
Идентификатор кодека : V_MPEG4/ISO/AVC
Продолжительность : 1 ч. 37 м.
Битрейт : 5760 Кбит/сек
Ширина : 1278 пикселей
Высота : 720 пикселей
Соотношение сторон : 16:9
Режим частоты кадров : Постоянный
Частота кадров : 23,976 кадра/сек
Цветовое пространство : YUV
Субдискретизация насыщенности : 4:2:0
Битовая глубина : 8 бит
Тип развёртки : Прогрессивная
Бит/(Пиксели*Кадры) : 0.261
Размер потока : 3,94 Гбайт (70%)
Библиотека кодирования : x264 core 146 r2538 121396c
Настройки программы : cabac=1 / ref=9 / deblock=1:-3:-2 / analyse=0x3:0x113 / me=umh / subme=11 / psy=1 / psy_rd=1.00:0.15 / mixed_ref=1 / me_range=32 / chroma_me=1 / trellis=2 / 8x8dct=1 / cqm=0 / deadzone=21,11 / fast_pskip=0 / chroma_qp_offset=-3 / threads=6 / lookahead_threads=1 / sliced_threads=0 / nr=0 / decimate=1 / interlaced=0 / bluray_compat=0 / constrained_intra=0 / bframes=7 / b_pyramid=2 / b_adapt=2 / b_bias=0 / direct=1 / weightb=1 / open_gop=0 / weightp=2 / keyint=230 / keyint_min=23 / scenecut=40 / intra_refresh=0 / rc_lookahead=40 / rc=crf / mbtree=0 / crf=19.0 / qcomp=0.60 / qpmin=0 / qpmax=69 / qpstep=4 / vbv_maxrate=62500 / vbv_bufsize=78125 / crf_max=0.0 / nal_hrd=none / filler=0 / ip_ratio=1.40 / pb_ratio=1.30 / aq=1:1.00
Язык : English
Default : Да
Forced : Нет

Аудио #1
Идентификатор : 2
Формат : AC-3
Формат/Информация : Audio Coding 3
Расширение режима : CM (complete main)
Параметр Endianness формата : Big
Идентификатор кодека : A_AC3
Продолжительность : 1 ч. 37 м.
Вид битрейта : Постоянный
Битрейт : 448 Кбит/сек
Каналы : 6 каналов
Расположение каналов : Front: L C R, Side: L R, LFE
Частота : 48,0 КГц
Битовая глубина : 16 бит
Метод сжатия : С потерями
Размер потока : 314 Мбайт (5%)
Заголовок : MVO (R5)
Язык : Russian
Default : Да
Forced : Нет

Аудио #2
Идентификатор : 3
Формат : AC-3
Формат/Информация : Audio Coding 3
Расширение режима : CM (complete main)
Параметр Endianness формата : Big
Идентификатор кодека : A_AC3
Продолжительность : 1 ч. 37 м.
Вид битрейта : Постоянный
Битрейт : 192 Кбит/сек
Каналы : 2 канала
Расположение каналов : Front: L R
Частота : 48,0 КГц
Битовая глубина : 16 бит
Метод сжатия : С потерями
Размер потока : 135 Мбайт (2%)
Заголовок : MVO (PTP)
Язык : Russian
Default : Нет
Forced : Нет

Аудио #3
Идентификатор : 4
Формат : AC-3
Формат/Информация : Audio Coding 3
Расширение режима : CM (complete main)
Параметр Endianness формата : Big
Идентификатор кодека : A_AC3
Продолжительность : 1 ч. 37 м.
Вид битрейта : Постоянный
Битрейт : 192 Кбит/сек
Каналы : 2 канала
Расположение каналов : Front: L R
Частота : 48,0 КГц
Битовая глубина : 16 бит
Метод сжатия : С потерями
Размер потока : 135 Мбайт (2%)
Заголовок : MVO
Язык : Russian
Default : Нет
Forced : Нет

Аудио #4
Идентификатор : 5
Формат : AC-3
Формат/Информация : Audio Coding 3
Расширение режима : CM (complete main)
Параметр Endianness формата : Big
Идентификатор кодека : A_AC3
Продолжительность : 1 ч. 37 м.
Вид битрейта : Постоянный
Битрейт : 192 Кбит/сек
Каналы : 2 канала
Расположение каналов : Front: L R
Частота : 48,0 КГц
Битовая глубина : 16 бит
Метод сжатия : С потерями
Размер потока : 135 Мбайт (2%)
Заголовок : DVO
Язык : Russian
Default : Нет
Forced : Нет

Аудио #5
Идентификатор : 6
Формат : AC-3
Формат/Информация : Audio Coding 3
Расширение режима : CM (complete main)
Параметр Endianness формата : Big
Идентификатор кодека : A_AC3
Продолжительность : 1 ч. 37 м.
Вид битрейта : Постоянный
Битрейт : 384 Кбит/сек
Каналы : 6 каналов
Расположение каналов : Front: L C R, Side: L R, LFE
Частота : 48,0 КГц
Битовая глубина : 16 бит
Метод сжатия : С потерями
Размер потока : 269 Мбайт (5%)
Заголовок : AVO (Антон Карповский)
Язык : Russian
Default : Нет
Forced : Нет

Аудио #6
Идентификатор : 7
Формат : AC-3
Формат/Информация : Audio Coding 3
Расширение режима : CM (complete main)
Параметр Endianness формата : Big
Идентификатор кодека : A_AC3
Продолжительность : 1 ч. 37 м.
Вид битрейта : Постоянный
Битрейт : 448 Кбит/сек
Каналы : 6 каналов
Расположение каналов : Front: L C R, Side: L R, LFE
Частота : 48,0 КГц
Битовая глубина : 16 бит
Метод сжатия : С потерями
Размер потока : 314 Мбайт (5%)
Заголовок : AVO (Юрий Сербин)
Язык : Russian
Default : Нет
Forced : Нет

Аудио #7
Идентификатор : 8
Формат : AC-3
Формат/Информация : Audio Coding 3
Расширение режима : CM (complete main)
Параметр Endianness формата : Big
Идентификатор кодека : A_AC3
Продолжительность : 1 ч. 37 м.
Вид битрейта : Постоянный
Битрейт : 448 Кбит/сек
Каналы : 6 каналов
Расположение каналов : Front: L C R, Side: L R, LFE
Частота : 48,0 КГц
Битовая глубина : 16 бит
Метод сжатия : С потерями
Размер потока : 314 Мбайт (5%)
Заголовок : original
Язык : English
Default : Нет
Forced : Нет

Текст #1
Идентификатор : 9
Формат : UTF-8
Идентификатор кодека : S_TEXT/UTF8
Идентификатор кодека/Информация : UTF-8 Plain Text
Заголовок : русские
Язык : Russian
Default : Нет
Forced : Нет

Текст #2
Идентификатор : 10
Формат : UTF-8
Идентификатор кодека : S_TEXT/UTF8
Идентификатор кодека/Информация : UTF-8 Plain Text
Заголовок : английские
Язык : English
Default : Нет
Forced : Нет

Меню
00:00:00.000 : :Chapter 01
00:09:46.210 : :Chapter 02
00:16:28.445 : :Chapter 03
00:27:45.372 : :Chapter 04
00:39:00.421 : :Chapter 05
00:53:19.196 : :Chapter 06
01:09:38.883 : :Chapter 07
01:21:09.698 : :Chapter 08

Правила, инструкции, FAQ!!!
Торрент  Добавлен [20 июл 2018, 23:36] Скачать торрент Магнет ссылка
Скачать торрент
[ Размер 29.06 КБ / Просмотров 52 ]

Статус
Проверен 
 
Размер  5.63 ГБ
Приватный: Нет (DHT включён)
.torrent скачан  138
Как залить торрент? | Как скачать Torrent? | Ошибка в торренте? Качайте магнет  


     Отправить личное сообщение
   
Страница 1 из 1
Показать сообщения за:  Поле сортировки  
Начать новую тему Ответить на тему

   Похожие торренты   Автор   Ответы   Просмотры   Последнее сообщение 
В этой теме нет новых непрочитанных сообщений. Скачать торрент Дагон / Dagon (Стюарт Гордон / Stuart Gordon) [2001 г., ужасы, триллер, DVDRip] DVO

в форуме Ужасы, Размер: 743.94 МБ, Здоровье: 100%

Anonymous

0
12|4

63
0

10 фев 2014, 13:06

Anonymous Перейти к последнему сообщению

В этой теме нет новых непрочитанных сообщений. Скачать торрент Проверен Сердцеедки / Heartbreakers (2001) BDRip 720p | D, P, A

в форуме 720p | 1080p, Размер: 5.95 ГБ, Здоровье: 100%

Гость

0
31|22

60
68

27 ноя 2015, 20:13

Гость Перейти к последнему сообщению

В этой теме нет новых непрочитанных сообщений. Скачать торрент Проверен Мажестик / The Majestic (2001) BDRip 720p

в форуме 720p | 1080p, Размер: 7.76 ГБ, Здоровье: 100%

Гость

0
99|24

81
494

30 янв 2015, 00:18

Гость Перейти к последнему сообщению

В этой теме нет новых непрочитанных сообщений. Скачать торрент Проверен Шпионские игры / Spy Game (2001) BDRip 720p | D, P, P2, A

в форуме 720p | 1080p, Размер: 7.7 ГБ, Здоровье: 100%

Гость

0
23|23

193
52

25 апр 2015, 22:01

Гость Перейти к последнему сообщению

В этой теме нет новых непрочитанных сообщений. Скачать торрент Проверен Ничья земля / No Man's Land (2001) BDRip 720p

в форуме 720p | 1080p, Размер: 3.87 ГБ, Здоровье: 100%

Anonymous

0
96|65

198
50

05 янв 2015, 20:36

Anonymous Перейти к последнему сообщению



Сейчас этот форум просматривают: нет зарегистрированных пользователей и гости: 0


Вы не можете начинать темы
Вы не можете отвечать на сообщения
Вы не можете редактировать свои сообщения
Вы не можете удалять свои сообщения
Вы не можете добавлять вложения

Перейти:  
Ресурс не предоставляет электронные версии произведений, а занимается лишь коллекционированием и каталогизацией ссылок, присылаемых и публикуемых на форуме нашими читателями. Если вы являетесь правообладателем какого-либо представленного материала и не желаете чтобы ссылка на него находилась в нашем каталоге, свяжитесь с нами и мы незамедлительно удалим её. Файлы для обмена на трекере предоставлены пользователями сайта, и администрация не несёт ответственности за их содержание. Просьба не заливать файлы, защищенные авторскими правами, а также файлы нелегального содержания!
cron