На всех торрентах на трекере установлена скидка на скачивание в размере 100 процентов(а).
 Возможность скачивания торрента НЕ зависит от ограничений при низком ратио, низком аплоаде, требуемом ратио или требуемом аплоаде.


Начать новую тему Ответить на тему
Статистика раздачи
Размер: 2.08 ГБ | Добавлен: 20 окт 2018, 08:43 | Скачали: 0
Сидеров: 1  [0 байт/сек]    Личеров: 0  [0 байт/сек]
Пред. тема | След. тема 

Автор
Сообщение

СообщениеДобавлено: 20 окт 2018, 08:43 

Ответить с цитатой 

Да здравствует Сервац / Éljen Szervác! [Советская прокатная копия]
Страна: Венгрия
Жанр: мультфильм, приключения, комедия
Продолжительность: 00:53:42
Год выпуска: 1986
Перевод: Профессиональный (дублированный) - Киностудия "Ленфильм"
Русские субтитры: нет
Режиссёр: Фоки Отто / Foky Ottó
Описание: Кукольный мультфильм про охотника по имени Сервац. Охотник собирает у себя дома на день рождения друзей-животных и предается воспоминаниям о своих приключениях. Во время причключений молодой рыжеволосый усатый охотник часто попадает в забавные и нелепые ситуации, но благодаря смекалке и ловкости охотника всегда выходит сухим из воды и находит себе новых друзей.
Доп. информация: Мультфильм присутствует не совсем целиком, местами кусков не хватает, сам переписывал с кассеты и больше вообще нигде данный мультфильм не нашел. Если найдется в лучшем качестве и целиком - да поглотит он мою раздачу, а пока на мой взгляд лучше так чем никак. Сохраним кусочек истории.
Семпл: http://sendfile.su/1446896
Качество: TVRip
Формат: MKV
Видео: 720x576 (4:3) @ 768x576, 25.000 fps, MPEG-2 Video, ~5016 kbps
Аудио 1: Русский, 48.0 KHz, AC3, 1 ch, 192 Kbps - Filtered
Аудио 2: Русский, 48.0 KHz, MP2, 2 ch, 224 Kbps - Оригинальная оцифровка
Субтитры: отсутствуют
Код:
General
Unique ID                                : 216626554412058458796189243555711172661 (0xA2F8C1BCEF3A4BBB6E3BCF5E01624035)
Complete name                            : Да здравствует Сервац 1986 Dub Ленфильм.mkv
Format                                   : Matroska
Format version                           : Version 4
File size                                : 2.08 GiB
Duration                                 : 53 min 42 s
Overall bit rate mode                    : Variable
Overall bit rate                         : 5 542 kb/s
Encoded date                             : UTC 2018-10-07 12:13:03
Writing application                      : mkvmerge v27.0.0 ('Metropolis') 64-bit
Writing library                          : libebml v1.3.6 + libmatroska v1.4.9
Video
ID                                       : 1
Format                                   : MPEG Video
Format version                           : Version 2
Format profile                           : Main@Main
Format settings                          : BVOP
Format settings, BVOP                    : Yes
Format settings, Matrix                  : Default
Format settings, GOP                     : M=3, N=15
Codec ID                                 : V_MPEG2
Codec ID/Info                            : MPEG 1 or 2 Video
Duration                                 : 53 min 42 s
Bit rate mode                            : Variable
Bit rate                                 : 5 120 kb/s
Width                                    : 720 pixels
Height                                   : 576 pixels
Display aspect ratio                     : 4:3
Frame rate mode                          : Constant
Frame rate                               : 25.000 FPS
Standard                                 : PAL
Color space                              : YUV
Chroma subsampling                       : 4:2:0
Bit depth                                : 8 bits
Scan type                                : Progressive
Scan order                               : Top Field First
Compression mode                         : Lossy
Bits/(Pixel*Frame)                       : 0.494
Time code of first frame                 : 00:00:00:00
Time code source                         : Group of pictures header
GOP, Open/Closed                         : Open
GOP, Open/Closed of first frame          : Closed
Stream size                              : 1.92 GiB (92%)
Default                                  : Yes
Forced                                   : No
Color primaries                          : BT.601 PAL
Transfer characteristics                 : BT.470 System B/G
Matrix coefficients                      : BT.470 System B/G
Audio #1
ID                                       : 2
Format                                   : AC-3
Format/Info                              : Audio Coding 3
Commercial name                          : Dolby Digital
Codec ID                                 : A_AC3
Duration                                 : 53 min 42 s
Bit rate mode                            : Constant
Bit rate                                 : 192 kb/s
Channel(s)                               : 1 channel
Channel layout                           : C
Sampling rate                            : 48.0 kHz
Frame rate                               : 31.250 FPS (1536 SPF)
Bit depth                                : 16 bits
Compression mode                         : Lossy
Stream size                              : 73.8 MiB (3%)
Title                                    : Filtered
Language                                 : Russian
Service kind                             : Complete Main
Default                                  : Yes
Forced                                   : No
Audio #2
ID                                       : 3
Format                                   : MPEG Audio
Format version                           : Version 1
Format profile                           : Layer 2
Codec ID                                 : A_MPEG/L2
Codec ID/Hint                            : MP2
Duration                                 : 53 min 42 s
Bit rate mode                            : Constant
Bit rate                                 : 224 kb/s
Channel(s)                               : 2 channels
Sampling rate                            : 48.0 kHz
Frame rate                               : 41.667 FPS (1152 SPF)
Compression mode                         : Lossy
Stream size                              : 86.0 MiB (4%)
Title                                    : Оригинальная оцифровка
Language                                 : Russian
Default                                  : No
Forced                                   : No
Правила, инструкции, FAQ!!!
Торрент  Добавлен [20 окт 2018, 08:43] Скачать торрент Магнет ссылка
Скачать торрент
[ Размер 10.89 КБ / Просмотров 15 ]

Статус
Проверен 
 
Размер  2.08 ГБ
Приватный: Нет (DHT включён)
.torrent скачан  0
Как залить торрент? | Как скачать Torrent? | Ошибка в торренте? Качайте магнет  


     Отправить личное сообщение
   
Страница 1 из 1
Показать сообщения за:  Поле сортировки  
Начать новую тему Ответить на тему

   Похожие торренты   Автор   Ответы   Просмотры   Последнее сообщение 
В этой теме нет новых непрочитанных сообщений. Скачать торрент Проверен Носорог Отто в 3Д / Otto er et næsehorn 3D / Otto The Rhino 3D (Кеннет Кайнц / Kenneth Kainz) [2013, мультфильм, комедия, семейный, BDRip-AVC] Half OverUnder / Вертикальная анаморфная стереопара

в форуме HD-Video в 3D, Размер: 5.37 ГБ, Здоровье: 100%

Anonymous

0
3|0

105
0

07 сен 2016, 18:50

Anonymous Перейти к последнему сообщению

В этой теме нет новых непрочитанных сообщений. Скачать торрент Проверен [iPhone] Все приключения трех богатырей: Алеши Поповича, Добрыни Никитича и Ильи Муромца [Мультфильм, комедия, приключения, BDRip, 320p]

в форуме Фильмы для iPod, iPhone, iPad, Размер: 2.3 ГБ, Здоровье: 100%

Anonymous

0
27|12

123
3

11 май 2015, 01:42

Anonymous Перейти к последнему сообщению

В этой теме нет новых непрочитанных сообщений. Скачать торрент Проверен Приключения мистера Пибоди и Шермана в 3Д / Mr. Peabody & Sherman 3D (Роб Минкофф / Rob Minkoff) [2014, США, Мультфильм, комедия, приключения, семейный, Blu-ray disc 1080p] BD3D CEE

в форуме 3D Мультфильмы, Размер: 37.33 ГБ, Здоровье: 100%

Anonymous

0
1|0

121
0

07 сен 2016, 18:13

Anonymous Перейти к последнему сообщению

В этой теме нет новых непрочитанных сообщений. Скачать торрент Проверен Приключения мистера Пибоди и Шермана в 3Д / Mister Peabody & Sherman 3D (Роб Минкофф / Rob Minkoff) [2014, Мультфильм, Фантастика, Комедия, Приключения, Семейный, BDrip, 1080p] OverUnder / Вертикальная стереопара

в форуме 3D Мультфильмы, Размер: 10.87 ГБ, Здоровье: 0%

Anonymous

0
0|0

128
0

07 сен 2016, 17:45

Anonymous Перейти к последнему сообщению

В этой теме нет новых непрочитанных сообщений. Скачать торрент Проверен [ANIME] Блич / Bleach (Абэ Нориюки) [TV + OVA 1,2] [1-366] [2004-2011 г., приключения, комедия, фэнтези, сёнэн, TVRip / HDTVRip][MP4, 640x] [Субтитры]

в форуме Видео для смартфонов и КПК, Размер: 56.31 ГБ, Здоровье: 100%

Anonymous

0
53|19

169
0

02 авг 2014, 17:05

Anonymous Перейти к последнему сообщению



Сейчас этот форум просматривают: нет зарегистрированных пользователей и гости: 1


Вы не можете начинать темы
Вы не можете отвечать на сообщения
Вы не можете редактировать свои сообщения
Вы не можете удалять свои сообщения
Вы не можете добавлять вложения

Перейти:  
Ресурс не предоставляет электронные версии произведений, а занимается лишь коллекционированием и каталогизацией ссылок, присылаемых и публикуемых на форуме нашими читателями. Если вы являетесь правообладателем какого-либо представленного материала и не желаете чтобы ссылка на него находилась в нашем каталоге, свяжитесь с нами и мы незамедлительно удалим её. Файлы для обмена на трекере предоставлены пользователями сайта, и администрация не несёт ответственности за их содержание. Просьба не заливать файлы, защищенные авторскими правами, а также файлы нелегального содержания!
cron