На всех торрентах на трекере установлена скидка на скачивание в размере 100 процентов(а).
 Возможность скачивания торрента НЕ зависит от ограничений при низком ратио, низком аплоаде, требуемом ратио или требуемом аплоаде.


Начать новую тему Ответить на тему
Статистика раздачи
Размер: 205.29 МБ | Добавлен: 04 сен 2016, 18:28 | Скачали: 5
Сидеров: 3  [0 байт/сек]    Личеров: 3  [0 байт/сек]
Пред. тема | След. тема 

Автор
Сообщение

СообщениеДобавлено: 04 сен 2016, 18:28 

Ответить с цитатой 

Tom Fogerty (ex-Creedence Clearwater Revival) & Randy Oda-Sidekicks

Жанр: Classic Rock, Country Rock
Год выпуска диска: 1992
Производитель диска: USA
Аудио кодек: APE
Тип рипа: image+.cue
Продолжительность: 44:55
Трэклист:
01. Rainbow Corousel
02. Money Buys It (Funky Side Of Town)
03. Video Girl
04. Woman Of The Year
05. Clearwater Rain
06. Teardrops
07. We've Been Here Before
08. Sometimes
09. Sloop John B.
10. Unbearable Lightness Of Being
Exact Audio Copy V0.99 prebeta 4 from 23. January 2008

Отчёт EAC об извлечении, выполненном 4. ноября 2008, 13:40

Unknown Artist / Unknown Title

Дисковод: Optiarc DVD RW AD-7200S Adapter: 2 ID: 0

Режим чтения : Достоверность
Использование точного потока : Да
Отключение кэша аудио : Да
Использование указателей C2 : Нет

Коррекция смещения при чтении : 48
Способность читать области Lead-in и Lead-out : Нет
Заполнение пропущенных сэмплов тишиной : Да
Удаление блоков с тишиной в начале и конце : Нет
При вычислениях CRC использовались нулевые сэмплы : Нет
Интерфейс : Встроенный Win32-интерфейс для Win NT/2000

Выходной формат : Внутренние WAV-операции
Формат сэмплов : 44.100 Гц; 16 бит; стерео

TOC извлечённого CD

Трек | Старт | Длительность | Начальный сектор | Конечный сектор
---------------------------------------------------------------------
1 | 0:00.00 | 7:43.42 | 0 | 34766
2 | 7:43.42 | 3:04.48 | 34767 | 48614
3 | 10:48.15 | 4:43.15 | 48615 | 69854
4 | 15:31.30 | 4:15.17 | 69855 | 88996
5 | 19:46.47 | 3:05.50 | 88997 | 102921
6 | 22:52.22 | 4:04.43 | 102922 | 121264
7 | 26:56.65 | 4:28.17 | 121265 | 141381
8 | 31:25.07 | 4:44.50 | 141382 | 162731
9 | 36:09.57 | 4:41.73 | 162732 | 183879
10 | 40:51.55 | 4:04.00 | 183880 | 202179

Характеристики диапазона извлечения и сообщения об ошибках

Выбранный диапазон

Имя файла C:\Documents and Settings\Пользователь\Мои документы\Downloads\TOM FOGERTY & RANDY ODA\Tom Fogerty & Randy Oda-Sidekicks.wav

Пиковый уровень 100.0 %
Качество диапазона 100.0 %
CRC копии 0495607E
Копирование... OK

Ошибок не произошло

Конец отчёта
Правила, инструкции, FAQ!!!
Торрент  Добавлен [04 сен 2016, 18:28] Скачать торрент Магнет ссылка
Скачать торрент
[ Размер 16.79 КБ / Просмотров 80 ]

Статус
Проверен 
 
Размер  205.29 МБ
Приватный: Нет (DHT включён)
.torrent скачан  5
Как залить торрент? | Как скачать Torrent? | Ошибка в торренте? Качайте магнет  


     Отправить личное сообщение
   

СообщениеДобавлено: 20 ноя 2018, 21:58 

Ответить с цитатой 

Зарегистрированные пользователи
Зарегистрированные пользователи

Стаж: 1 год 8 месяцев 6 дней
Раздал: 143.48 МБ
Скачал: 0 байт
Ратио: Seed.
Торренты: 0
Здравствуйте! Спасибо большое вам за Альбом!!!
С уважением Stairss))) :bs:


Профиль     Отправить личное сообщение
   
Страница 1 из 1
Показать сообщения за:  Поле сортировки  
Начать новую тему Ответить на тему

   Похожие торренты   Автор   Ответы   Просмотры   Последнее сообщение 
В этой теме нет новых непрочитанных сообщений. Скачать торрент Проверен (Blues Rock, Country Rock, Southern Rock) [CD] Creedence Clearwater Revival - 24 Classic Hits - Creedence Clearwater Revival 21st Anniversary - 1990, FLAC (tracks+.cue), lossless

в форуме Classic Rock & Hard Rock, Размер: 451.6 МБ, Здоровье: 100%

Anonymous

0
89|22

62
4

16 июн 2018, 11:42

Anonymous Перейти к последнему сообщению

В этой теме нет новых непрочитанных сообщений. Скачать торрент Проверен (Swomp Rock,Classic Rock) [LP] [24/192] Creedence Clearwater Revival – Creedence Clearwater Revival - 1969, FLAC (image+.cue)

в форуме Зарубежный рок (оцифровки), Размер: 1.35 ГБ, Здоровье: 100%

Anonymous

0
7|2

48
0

25 авг 2016, 17:44

Anonymous Перейти к последнему сообщению

В этой теме нет новых непрочитанных сообщений. Скачать торрент Creedence Clearwater Revival - Creedence Clearwater Revival. 10 CD Collection (1987) Box Set [FLAC|Lossless]<Rock, Folk Rock, Country Rock>

в форуме Рок, Панк, Метал, Альтернатива, Размер: 2.19 ГБ, Здоровье: 3%

Anonymous

0
2|54

139
0

16 мар 2014, 00:21

Anonymous Перейти к последнему сообщению

В этой теме нет новых непрочитанных сообщений. Скачать торрент Проверен (Rock) [LP] [24/192] Creedence Clearwater Revival - Creedence Clearwater Revival (Complete Studio Album Box) - 1968/2014, FLAC (image+.cue)

в форуме Зарубежный рок (оцифровки), Размер: 1.31 ГБ, Здоровье: 100%

Anonymous

0
13|7

177
5

25 авг 2016, 17:44

Anonymous Перейти к последнему сообщению

В этой теме нет новых непрочитанных сообщений. Скачать торрент Проверен (Rock) [CD] Creedence Clearwater Revival - Creedence Clearwater Revival - 1968 (Fantasy CDFE 501 UK 1986), FLAC (image+.cue), lossless

в форуме Classic Rock & Hard Rock, Размер: 335.34 МБ, Здоровье: 70%

Anonymous

0
12|17

133
1

05 сен 2016, 22:10

Anonymous Перейти к последнему сообщению



Сейчас этот форум просматривают: нет зарегистрированных пользователей и гости: 0


Вы не можете начинать темы
Вы не можете отвечать на сообщения
Вы не можете редактировать свои сообщения
Вы не можете удалять свои сообщения
Вы не можете добавлять вложения

Перейти:  
Ресурс не предоставляет электронные версии произведений, а занимается лишь коллекционированием и каталогизацией ссылок, присылаемых и публикуемых на форуме нашими читателями. Если вы являетесь правообладателем какого-либо представленного материала и не желаете чтобы ссылка на него находилась в нашем каталоге, свяжитесь с нами и мы незамедлительно удалим её. Файлы для обмена на трекере предоставлены пользователями сайта, и администрация не несёт ответственности за их содержание. Просьба не заливать файлы, защищенные авторскими правами, а также файлы нелегального содержания!
cron